<?xml version="1.0" standalone="no"?>
<!DOCTYPE svg PUBLIC "-//W3C//DTD SVG 1.1//EN" "http://www.w3.org/Graphics/SVG/1.1/DTD/svg11.dtd" >
<svg xmlns="http://www.w3.org/2000/svg" xmlns:xlink="http://www.w3.org/1999/xlink" version="1.1">
<metadata>
Created by FontForge 20161003 at Thu Dec 12 10:34:27 2019
 By www-data
Copyright (c) 2019 by Colophon Foundry. All rights reserved.
</metadata>
<defs>
<font id="ChickenSansRegular" horiz-adv-x="0" >
  <font-face 
    font-family="ChickenSansRegular"
    font-weight="400"
    font-stretch="normal"
    units-per-em="1000"
    panose-1="2 11 5 3 4 2 1 0 0 3"
    ascent="800"
    descent="-200"
    x-height="515"
    cap-height="700"
    bbox="-506 -195 1083 915"
    underline-thickness="50"
    underline-position="-150"
    unicode-range="U+0020-25CA"
  />
<missing-glyph horiz-adv-x="602" 
d="M81 0v700h440v-700h-440zM129 44h344v612h-344v-612z" />
    <glyph glyph-name="f_i" unicode="fi" horiz-adv-x="615" 
d="M107 515q-4 199 159 199q63 0 109 -27l-28 -74q-34 20 -68 20q-86 0 -80 -118h137v-82h-137v-433h-92v433h-90v82h90zM495 587q-26 0 -43 16t-17 41t17 41.5t43 16.5q27 0 44 -16t17 -42q0 -25 -17 -41t-44 -16zM449 0v515h93v-515h-93z" />
    <glyph glyph-name="f_l" unicode="fl" horiz-adv-x="628" 
d="M107 515q-4 199 162 199q80 0 136 -48l-39 -67q-39 34 -86 34q-41 0 -62.5 -25.5t-18.5 -92.5h142v-82h-142v-433h-92v433h-90v82h90zM464 700h93v-700h-93v700z" />
    <glyph glyph-name=".notdef" horiz-adv-x="602" 
d="M81 0v700h440v-700h-440zM129 44h344v612h-344v-612z" />
    <glyph glyph-name=".null" 
 />
    <glyph glyph-name="nonmarkingreturn" horiz-adv-x="333" 
 />
    <glyph glyph-name="space" unicode=" " horiz-adv-x="211" 
 />
    <glyph glyph-name="exclam" unicode="!" horiz-adv-x="255" 
d="M89 207l-9 130v363h94v-363l-9 -130h-76zM127 -7q-26 0 -43 16t-17 41t17 41.5t43 16.5q27 0 44 -16t17 -42q0 -25 -17 -41t-44 -16z" />
    <glyph glyph-name="quotedbl" unicode="&#x22;" horiz-adv-x="379" 
d="M75 493l-16 117v90h87v-90l-16 -117h-55zM249 493l-17 117v90h88v-90l-17 -117h-54z" />
    <glyph glyph-name="numbersign" unicode="#" horiz-adv-x="742" 
d="M704 432h-127l-47 -164h131v-80h-154l-54 -188h-89l54 188h-188l-54 -188h-88l54 188h-104v80h127l47 164h-131v80h154l54 188h88l-54 -188h188l54 188h89l-54 -188h104v-80zM441 268l47 164h-188l-47 -164h188z" />
    <glyph glyph-name="dollar" unicode="$" horiz-adv-x="576" 
d="M529 192q0 -85 -55.5 -138.5t-145.5 -61.5v-92h-85v94q-144 22 -209 165l78 50q55 -130 187 -130q60 0 96.5 28.5t36.5 81.5q0 76 -112 108l-90 26q-168 48 -168 198q0 75 49.5 125t131.5 61v93h85v-93q134 -20 178 -159l-73 -47q-15 61 -56.5 90.5t-91.5 29.5
q-60 0 -94 -27.5t-34 -71.5q0 -82 102 -111l93 -27q87 -25 132 -70.5t45 -121.5z" />
    <glyph glyph-name="percent" unicode="%" horiz-adv-x="741" 
d="M178 392q-68 -1 -111.5 43t-43.5 114t43.5 114t111.5 44q67 0 110.5 -44t43.5 -114q0 -69 -43.5 -113t-110.5 -44zM133 11l-49 41l521 637l49 -40zM178 455q39 -1 62.5 24t23.5 70t-23.5 70t-62.5 25q-40 0 -64 -25t-24 -70t24 -69.5t64 -24.5zM563 -7q-67 -1 -111 43.5
t-44 113.5q0 70 44 114t111 44t111 -44t44 -114q0 -69 -44 -113t-111 -44zM563 56q40 0 63.5 24.5t23.5 69.5t-23.5 70t-63.5 25t-63.5 -25t-23.5 -70t23.5 -69t63.5 -25z" />
    <glyph glyph-name="ampersand" unicode="&#x26;" horiz-adv-x="610" 
d="M607 0h-109l-59 71q-83 -81 -195 -81q-93 0 -152 55.5t-59 146.5q0 128 132 209q-54 76 -54 146q0 72 48 117.5t124 45.5q137 0 172 -154l-71 -46q-12 62 -37 86.5t-62 24.5t-59 -22t-22 -61q0 -34 19.5 -66.5t64.5 -86.5l143 -172q28 57 39 133l87 -20
q-15 -106 -65 -187zM251 80q75 0 130 60l-164 197q-89 -56 -89 -141q0 -55 34 -85.5t89 -30.5z" />
    <glyph glyph-name="quotesingle" unicode="'" horiz-adv-x="205" 
d="M75 493l-16 117v90h87v-90l-16 -117h-55z" />
    <glyph glyph-name="parenleft" unicode="(" horiz-adv-x="396" 
d="M303 -195q-218 185 -218 465t218 465l54 -52q-88 -92 -133 -187t-45 -226t45 -226t133 -187z" />
    <glyph glyph-name="parenright" unicode=")" horiz-adv-x="397" 
d="M94 -195l-55 52q88 92 133.5 187t45.5 226t-45.5 226t-133.5 187l55 52q218 -186 218 -465t-218 -465z" />
    <glyph glyph-name="asterisk" unicode="*" horiz-adv-x="407" 
d="M367 583l-114 -27l77 -90l-65 -47l-62 101l-61 -101l-65 47l76 90l-114 27l25 76l109 -45l-10 117h80l-10 -117l109 46z" />
    <glyph glyph-name="plus" unicode="+" horiz-adv-x="521" 
d="M466 375v-82h-164v-164h-83v164h-164v82h164v164h83v-164h164z" />
    <glyph glyph-name="comma" unicode="," horiz-adv-x="236" 
d="M73 -130l-23 39q41 20 62.5 41.5t25.5 53.5q-12 -11 -35 -11q-21 0 -35.5 15t-14.5 38q0 25 17.5 42t47.5 17q34 0 52.5 -22t18.5 -58q0 -58 -30.5 -94t-85.5 -61z" />
    <glyph glyph-name="hyphen" unicode="-" horiz-adv-x="452" 
d="M55 266v82h342v-82h-342z" />
    <glyph glyph-name="period" unicode="." horiz-adv-x="229" 
d="M115 -7q-27 0 -44 16t-17 41q0 26 17 42t44 16q26 0 43 -16.5t17 -41.5t-17 -41t-43 -16z" />
    <glyph glyph-name="slash" unicode="/" horiz-adv-x="454" 
d="M23 0l313 700h96l-314 -700h-95z" />
    <glyph glyph-name="zero" unicode="0" horiz-adv-x="640" 
d="M320 -10q-120 0 -194.5 92t-74.5 268t74.5 268t194.5 92q121 0 195 -92t74 -268t-74 -268t-195 -92zM320 79q77 0 123.5 65.5t46.5 205.5t-46.5 205.5t-123.5 65.5q-78 0 -124 -65.5t-46 -205.5t46 -205.5t124 -65.5z" />
    <glyph glyph-name="one" unicode="1" horiz-adv-x="312" 
d="M137 0v585l-113 -33v72l147 76h60v-700h-94z" />
    <glyph glyph-name="two" unicode="2" horiz-adv-x="538" 
d="M50 0v84l157 174q5 5 43.5 47t50.5 57t36.5 48t33.5 58t9 49q0 50 -28.5 77t-81.5 27q-57 0 -97 -39.5t-50 -115.5l-74 48q15 89 75.5 142.5t148.5 53.5q94 0 147.5 -51.5t53.5 -134.5q0 -64 -35 -121.5t-110 -139.5l-158 -175h320v-88h-441z" />
    <glyph glyph-name="three" unicode="3" horiz-adv-x="542" 
d="M263 -10q-170 0 -247 150l77 49q55 -110 170 -110q59 0 97.5 34.5t38.5 90.5q0 55 -37.5 84.5t-124.5 29.5h-55v83h48q69 0 106.5 31t37.5 84q0 48 -33.5 76.5t-87.5 28.5q-104 0 -140 -105l-72 48q61 145 215 145q96 0 153 -49.5t57 -130.5q0 -58 -30.5 -99.5
t-74.5 -59.5q61 -15 97 -57t36 -112q0 -93 -64.5 -152t-166.5 -59z" />
    <glyph glyph-name="four" unicode="4" horiz-adv-x="572" 
d="M540 238v-82h-99v-156h-92v156h-313v82l310 462h95v-462h99zM138 238h211v321z" />
    <glyph glyph-name="five" unicode="5" horiz-adv-x="544" 
d="M270 -10q-80 0 -141.5 39.5t-91.5 114.5l75 49q45 -114 158 -114q60 0 97.5 40t37.5 109q0 71 -36.5 109.5t-97.5 38.5q-79 0 -137 -60l-81 26l17 358h396v-87h-313l-11 -228q57 76 157 76q92 0 147.5 -60t55.5 -166q0 -115 -64 -180t-168 -65z" />
    <glyph glyph-name="six" unicode="6" horiz-adv-x="586" 
d="M305 -10q-119 0 -186.5 84t-67.5 249q0 194 73 290.5t184 96.5q83 0 135 -41t75 -132l-85 -18q-17 56 -46.5 79t-78.5 23q-58 0 -96.5 -45t-53.5 -113.5t-11 -153.5q18 67 69 105.5t119 38.5q90 0 146.5 -58.5t56.5 -167.5q0 -101 -63.5 -169t-169.5 -68zM305 79
q61 0 99.5 40t38.5 106q0 70 -36.5 106t-99.5 36q-59 0 -100.5 -40.5t-41.5 -111.5q0 -63 40 -99.5t100 -36.5z" />
    <glyph glyph-name="seven" unicode="7" horiz-adv-x="466" 
d="M99 0l239 614h-313v86h409v-82l-237 -618h-98z" />
    <glyph glyph-name="eight" unicode="8" horiz-adv-x="574" 
d="M287 -10q-110 0 -174.5 56.5t-64.5 150.5q0 62 31.5 108t81.5 64q-41 21 -65.5 60t-24.5 89q0 85 58 138.5t158 53.5t159 -53.5t59 -138.5q0 -50 -25 -89.5t-67 -60.5q50 -18 81.5 -63.5t31.5 -107.5q0 -94 -65 -150.5t-174 -56.5zM287 403q61 0 93.5 31t32.5 81
q0 49 -32.5 81t-93.5 32t-94 -32t-33 -81q0 -50 32.5 -81t94.5 -31zM287 72q70 0 107.5 35.5t37.5 89.5q0 56 -38 90.5t-107 34.5t-107.5 -34.5t-38.5 -90.5q0 -55 38 -90t108 -35z" />
    <glyph glyph-name="nine" unicode="9" horiz-adv-x="586" 
d="M278 -10q-83 0 -135 41t-75 132l84 18q17 -56 47 -79t79 -23q58 0 96.5 45t53.5 113.5t11 153.5q-18 -67 -69 -105.5t-119 -38.5q-90 0 -146.5 58.5t-56.5 167.5q0 101 63.5 169t169.5 68q119 0 186.5 -84t67.5 -249q0 -194 -73.5 -290.5t-183.5 -96.5zM279 333
q59 0 100.5 40.5t41.5 111.5q0 63 -40 99.5t-100 36.5q-62 0 -100.5 -40t-38.5 -106q0 -70 37 -106t100 -36z" />
    <glyph glyph-name="colon" unicode=":" horiz-adv-x="229" 
d="M115 407q-27 0 -44 16t-17 42q0 25 17 41t44 16q26 0 43 -16t17 -41t-17 -41.5t-43 -16.5zM115 -7q-27 0 -44 16t-17 41q0 26 17 42t44 16q26 0 43 -16.5t17 -41.5t-17 -41t-43 -16z" />
    <glyph glyph-name="semicolon" unicode=";" horiz-adv-x="236" 
d="M117 407q-26 0 -43 16.5t-17 41.5t17 41t43 16q27 0 44 -16t17 -41q0 -26 -17 -42t-44 -16zM73 -130l-23 39q41 20 62.5 41.5t25.5 53.5q-12 -11 -35 -11q-21 0 -35.5 15t-14.5 38q0 25 17.5 42t47.5 17q34 0 52.5 -22t18.5 -58q0 -58 -30.5 -94t-85.5 -61z" />
    <glyph glyph-name="less" unicode="&#x3c;" horiz-adv-x="472" 
d="M413 60l-366 233v82l366 233v-102l-272 -172l272 -172v-102z" />
    <glyph glyph-name="equal" unicode="=" horiz-adv-x="521" 
d="M55 403v83h411v-83h-411zM55 182v82h411v-82h-411z" />
    <glyph glyph-name="greater" unicode="&#x3e;" horiz-adv-x="472" 
d="M59 60v102l272 172l-272 172v102l366 -233v-82z" />
    <glyph glyph-name="question" unicode="?" horiz-adv-x="466" 
d="M290 178q-72 12 -107 46.5t-35 83.5q0 68 78 122l52 36q53 36 53 82q0 32 -24 53.5t-69 21.5q-107 0 -141 -115l-71 45q21 74 76.5 115.5t138.5 41.5q84 0 134.5 -43.5t50.5 -112.5q0 -88 -88 -144l-50 -33q-26 -17 -37 -31t-11 -35q0 -43 76 -61zM233 -7q-27 0 -44 16
t-17 41q0 26 17 42t44 16q26 0 43 -16.5t17 -41.5t-17 -41t-43 -16z" />
    <glyph glyph-name="at" unicode="@" horiz-adv-x="881" 
d="M423 -174q-74 0 -139 23t-117 68.5t-82.5 121.5t-30.5 173q0 187 110 287.5t281 100.5q174 0 278.5 -95.5t104.5 -273.5q0 -117 -43.5 -178t-112.5 -61q-90 0 -116 88q-46 -88 -144 -88q-71 0 -119.5 57.5t-48.5 156.5t48.5 155.5t125.5 56.5q88 0 126 -74l10 66h70v-262
q0 -47 12.5 -66t40.5 -19q74 0 74 168q0 142 -78.5 219t-227.5 77q-147 0 -230.5 -83t-83.5 -232q0 -147 80.5 -230.5t211.5 -83.5q99 0 166 40l32 -64q-87 -48 -198 -48zM434 70q57 0 84 38t27 98q0 136 -110 136q-51 0 -78.5 -36.5t-27.5 -99.5t27 -99.5t78 -36.5z" />
    <glyph glyph-name="A" unicode="A" horiz-adv-x="636" 
d="M521 0l-62 181h-281l-62 -181h-98l248 700h104l248 -700h-97zM207 267h223l-112 326z" />
    <glyph glyph-name="B" unicode="B" horiz-adv-x="621" 
d="M438 377q59 -12 96.5 -55.5t37.5 -120.5q0 -97 -61 -149t-185 -52h-245v700h213q119 0 177.5 -46t58.5 -127q0 -56 -26 -95t-66 -55zM294 615h-119v-207h137q125 0 125 106q0 101 -143 101zM323 85q153 0 153 118q0 62 -36 91t-121 29h-144v-238h148z" />
    <glyph glyph-name="C" unicode="C" horiz-adv-x="661" 
d="M356 -10q-134 0 -220.5 95t-86.5 265q0 168 88 264t219 96q225 0 251 -240l-89 -19q-18 170 -162 170q-88 0 -148 -71t-60 -200q0 -130 60 -200.5t148 -70.5q73 0 119 38t71 117l91 -20q-32 -110 -103 -167t-178 -57z" />
    <glyph glyph-name="D" unicode="D" horiz-adv-x="662" 
d="M281 700q168 0 250 -85.5t82 -264.5t-82 -264.5t-250 -85.5h-200v700h200zM281 88q120 0 178.5 62.5t58.5 199.5t-58.5 199.5t-178.5 62.5h-106v-524h106z" />
    <glyph glyph-name="E" unicode="E" horiz-adv-x="570" 
d="M81 0v700h444v-88h-350v-207h319v-89h-319v-228h356v-88h-450z" />
    <glyph glyph-name="F" unicode="F" horiz-adv-x="557" 
d="M525 612h-350v-217h319v-89h-319v-306h-94v700h444v-88z" />
    <glyph glyph-name="G" unicode="G" horiz-adv-x="683" 
d="M377 359h240v-359h-70l-11 110q-23 -54 -77 -87t-121 -33q-127 0 -208 93.5t-81 266.5t84 266.5t217 93.5q114 0 174 -55t74 -169l-89 -20q-10 80 -47.5 117.5t-111.5 37.5q-89 0 -145.5 -69t-56.5 -202q0 -132 56 -201.5t149 -69.5q78 0 124.5 42t47.5 129v30h-148v79z
" />
    <glyph glyph-name="H" unicode="H" horiz-adv-x="694" 
d="M81 0v700h94v-293h344v293h94v-700h-94v319h-344v-319h-94z" />
    <glyph glyph-name="I" unicode="I" horiz-adv-x="256" 
d="M81 0v700h94v-700h-94z" />
    <glyph glyph-name="J" unicode="J" horiz-adv-x="530" 
d="M243 -10q-97 0 -152 56.5t-56 162.5l85 19q3 -149 123 -149q60 0 88.5 40.5t28.5 135.5v445h94l-1 -449q0 -136 -53 -198.5t-157 -62.5z" />
    <glyph glyph-name="K" unicode="K" horiz-adv-x="600" 
d="M479 0l-196 353l-108 -132v-221h-94v700h94v-345l279 345h114l-222 -270l242 -430h-109z" />
    <glyph glyph-name="L" unicode="L" horiz-adv-x="551" 
d="M81 0v700h94v-612h348v-88h-442z" />
    <glyph glyph-name="M" unicode="M" horiz-adv-x="840" 
d="M81 0v700h120l219 -502l218 502h121v-700h-90v562l-205 -467h-88l-205 467v-562h-90z" />
    <glyph glyph-name="N" unicode="N" horiz-adv-x="704" 
d="M81 0v700h107l344 -566v566h91v-700h-107l-344 553v-553h-91z" />
    <glyph glyph-name="O" unicode="O" horiz-adv-x="741" 
d="M371 -10q-142 0 -232 95t-90 265t90 265t232 95q141 0 230.5 -95t89.5 -265t-89.5 -265t-230.5 -95zM371 79q98 0 160 70t62 201q0 130 -62.5 200.5t-159.5 70.5q-98 0 -160.5 -70.5t-62.5 -200.5q0 -131 62.5 -201t160.5 -70z" />
    <glyph glyph-name="P" unicode="P" horiz-adv-x="590" 
d="M332 700q114 0 173.5 -53t59.5 -156t-59.5 -155.5t-173.5 -52.5h-157v-283h-94v700h251zM332 371q138 0 138 120q0 121 -138 121h-157v-241h157z" />
    <glyph glyph-name="Q" unicode="Q" horiz-adv-x="741" 
d="M691 350q0 -154 -74 -247t-196 -110q39 -53 150 -72l-41 -87q-74 22 -125 62t-67 95q-130 12 -209.5 105.5t-79.5 253.5q0 170 90 265t232 95q141 0 230.5 -95t89.5 -265zM371 79q98 0 160 70t62 201q0 130 -62.5 200.5t-159.5 70.5q-98 0 -160.5 -70.5t-62.5 -200.5
q0 -131 62.5 -201t160.5 -70z" />
    <glyph glyph-name="R" unicode="R" horiz-adv-x="599" 
d="M565 0h-103l-121 305h-14h-152v-305h-94v700h246q229 0 229 -197q0 -146 -123 -184zM325 390q69 0 103 27t34 86q0 112 -137 112h-150v-225h150z" />
    <glyph glyph-name="S" unicode="S" horiz-adv-x="567" 
d="M295 -10q-183 0 -261 169l78 50q55 -130 187 -130q60 0 96.5 28.5t36.5 81.5q0 76 -112 108l-90 26q-168 48 -168 198q0 85 62 137t161 52q83 0 139.5 -41.5t81.5 -120.5l-73 -47q-15 61 -56.5 90.5t-91.5 29.5q-60 0 -94 -27.5t-34 -71.5q0 -82 102 -111l93 -27
q87 -25 132 -70.5t45 -121.5q0 -92 -65.5 -147t-168.5 -55z" />
    <glyph glyph-name="T" unicode="T" horiz-adv-x="541" 
d="M523 700v-88h-206v-612h-94v612h-205v88h505z" />
    <glyph glyph-name="U" unicode="U" horiz-adv-x="695" 
d="M348 -10q-133 0 -202 74t-69 239v397h94v-386q0 -128 42.5 -181.5t134.5 -53.5q89 0 133 54t44 182v385h94l-1 -397q-1 -165 -69.5 -239t-200.5 -74z" />
    <glyph glyph-name="V" unicode="V" horiz-adv-x="625" 
d="M258 0l-240 700h102l192 -587l193 587h102l-240 -700h-109z" />
    <glyph glyph-name="W" unicode="W" horiz-adv-x="941" 
d="M210 0l-186 700h101l142 -587l151 587h105l151 -587l143 587h100l-185 -700h-112l-149 579l-150 -579h-111z" />
    <glyph glyph-name="X" unicode="X" horiz-adv-x="588" 
d="M14 0l221 360l-211 340h109l161 -268l161 268h109l-211 -340l221 -360h-108l-172 286l-172 -286h-108z" />
    <glyph glyph-name="Y" unicode="Y" horiz-adv-x="576" 
d="M562 700l-227 -456v-244h-94v244l-228 456h102l173 -358l173 358h101z" />
    <glyph glyph-name="Z" unicode="Z" horiz-adv-x="530" 
d="M35 0v81l343 533h-322v86h432v-82l-343 -532h350v-86h-460z" />
    <glyph glyph-name="bracketleft" unicode="[" horiz-adv-x="395" 
d="M81 -165v865h285v-82h-195v-701h195v-82h-285z" />
    <glyph glyph-name="backslash" unicode="\" horiz-adv-x="454" 
d="M432 0h-96l-313 700h95z" />
    <glyph glyph-name="bracketright" unicode="]" horiz-adv-x="395" 
d="M314 -165h-284v82h194v701h-194v82h284v-865z" />
    <glyph glyph-name="asciicircum" unicode="^" horiz-adv-x="440" 
d="M32 493l139 207h98l139 -207h-90l-98 137l-98 -137h-90z" />
    <glyph glyph-name="underscore" unicode="_" horiz-adv-x="504" 
d="M0 -129v83h504v-83h-504z" />
    <glyph glyph-name="grave" unicode="`" horiz-adv-x="224" 
d="M112 573l-94 127h116l64 -127h-86z" />
    <glyph glyph-name="a" unicode="a" horiz-adv-x="518" 
d="M258 525q94 0 144.5 -50t50.5 -163v-312h-75l-13 87q-55 -97 -171 -97q-67 0 -109 40t-42 109q0 173 272 173q15 0 47 -2v9q0 68 -25 95t-83 27q-86 0 -116 -78l-72 42q28 61 79 90.5t113 29.5zM225 69q137 0 137 154v16q-50 2 -69 2q-157 0 -157 -91q0 -40 25 -60.5
t64 -20.5z" />
    <glyph glyph-name="b" unicode="b" horiz-adv-x="584" 
d="M336 -10q-62 0 -108 29.5t-71 81.5l-11 -101h-76v700h93v-278q46 103 173 103q92 0 146.5 -68.5t54.5 -199.5q0 -129 -56.5 -198t-144.5 -69zM304 75q69 0 103.5 47t34.5 135t-34.5 135.5t-103.5 47.5q-67 0 -105 -45.5t-38 -139.5q0 -85 39 -132.5t104 -47.5z" />
    <glyph glyph-name="c" unicode="c" horiz-adv-x="507" 
d="M276 -10q-100 0 -167 70t-67 197q0 128 67 198t167 70q171 0 191 -170l-85 -18q-7 53 -32 78t-74 25q-63 0 -100.5 -48t-37.5 -135t37.5 -134.5t100.5 -47.5q52 0 83 24.5t48 75.5l84 -19q-50 -166 -215 -166z" />
    <glyph glyph-name="d" unicode="d" horiz-adv-x="584" 
d="M248 -10q-88 0 -144.5 69t-56.5 198q0 131 54.5 199.5t146.5 68.5q127 0 173 -103v278h92v-700h-76l-10 101q-55 -111 -179 -111zM280 75q65 0 103.5 47.5t38.5 132.5q0 93 -38 139t-104 46q-69 0 -103.5 -47.5t-34.5 -135.5t34.5 -135t103.5 -47z" />
    <glyph glyph-name="e" unicode="e" horiz-adv-x="537" 
d="M282 72q93 0 124 80l85 -19q-27 -73 -83.5 -108t-127.5 -35q-104 0 -171 70.5t-67 196.5t66.5 197t169.5 71q94 0 154 -57t60 -161q0 -39 -10 -83h-347q7 -74 45.5 -113t101.5 -39zM278 443q-58 0 -95 -35.5t-47 -105.5h264q1 9 1 18q0 57 -32.5 90t-90.5 33z" />
    <glyph glyph-name="f" unicode="f" horiz-adv-x="378" 
d="M280 633q-41 0 -62.5 -25.5t-18.5 -92.5h142v-82h-142v-433h-92v433h-90v82h90q-4 199 162 199q80 0 136 -48l-39 -67q-39 34 -86 34z" />
    <glyph glyph-name="g" unicode="g" horiz-adv-x="584" 
d="M283 -175q-69 0 -124.5 26.5t-87.5 65.5l58 62q61 -70 154 -70q138 0 138 189v28q-57 -99 -172 -99q-88 0 -145 65.5t-57 181.5q0 120 56.5 185.5t145.5 65.5q128 0 174 -107l10 97h80v-385q0 -305 -230 -305zM280 110q65 0 103.5 45.5t38.5 118.5q0 81 -38.5 123.5
t-101.5 42.5q-68 0 -104 -44.5t-36 -121.5q0 -76 35.5 -120t102.5 -44z" />
    <glyph glyph-name="h" unicode="h" horiz-adv-x="573" 
d="M70 0v700h93v-297q33 122 174 122q171 0 171 -210v-315h-92v282q0 90 -26.5 123.5t-89.5 33.5q-66 0 -101.5 -44t-35.5 -147v-248h-93z" />
    <glyph glyph-name="i" unicode="i" horiz-adv-x="234" 
d="M117 587q-27 0 -44 16t-17 41q0 26 17 42t44 16t44 -16t17 -42q0 -25 -17 -41t-44 -16zM71 0v515h92v-515h-92z" />
    <glyph glyph-name="j" unicode="j" horiz-adv-x="235" 
d="M118 587q-26 0 -43 16t-17 41t17 41.5t43 16.5q27 0 44 -16t17 -42q0 -25 -17 -41t-44 -16zM-15 -112q44 42 65.5 88t21.5 117v422h92v-407q0 -105 -28 -161.5t-103 -121.5z" />
    <glyph glyph-name="k" unicode="k" horiz-adv-x="509" 
d="M399 0l-152 262l-84 -90v-172h-93v700h93v-411l210 226h112l-176 -187l193 -328h-103z" />
    <glyph glyph-name="l" unicode="l" horiz-adv-x="233" 
d="M70 0v700h93v-700h-93z" />
    <glyph glyph-name="m" unicode="m" horiz-adv-x="878" 
d="M70 0v515h77l10 -116q37 126 169 126q126 0 153 -133q32 133 172 133q162 0 162 -216v-309h-92v280q0 90 -25.5 124.5t-81.5 34.5q-61 0 -93.5 -43t-32.5 -149v-247h-92v280q0 90 -25.5 124.5t-82.5 34.5q-61 0 -93 -44t-32 -148v-247h-93z" />
    <glyph glyph-name="n" unicode="n" horiz-adv-x="573" 
d="M70 0v515h77l10 -116q37 126 180 126q171 0 171 -210v-315h-92v282q0 90 -26.5 123.5t-89.5 33.5q-66 0 -101.5 -44t-35.5 -147v-248h-93z" />
    <glyph glyph-name="o" unicode="o" horiz-adv-x="565" 
d="M283 -10q-106 0 -173.5 69.5t-67.5 197.5q0 129 67.5 198.5t173.5 69.5q105 0 172.5 -69.5t67.5 -198.5q0 -128 -67.5 -197.5t-172.5 -69.5zM283 75q68 0 106 47t38 135t-38 135.5t-106 47.5t-106.5 -47.5t-38.5 -135.5t38.5 -135t106.5 -47z" />
    <glyph glyph-name="p" unicode="p" horiz-adv-x="584" 
d="M70 -165v680h80l11 -97q46 107 176 107q91 0 145.5 -68.5t54.5 -199.5q0 -129 -56.5 -198t-145.5 -69q-117 0 -172 101v-256h-93zM304 75q69 0 103.5 47t34.5 135t-34.5 135.5t-103.5 47.5q-67 0 -105 -45.5t-38 -139.5q0 -83 38 -131.5t105 -48.5z" />
    <glyph glyph-name="q" unicode="q" horiz-adv-x="584" 
d="M421 -165v256q-57 -101 -172 -101q-89 0 -145.5 69t-56.5 198q0 131 54.5 199.5t145.5 68.5q130 0 176 -107l10 97h80v-680h-92zM280 75q67 0 104.5 48.5t37.5 131.5q0 93 -38 139t-104 46q-69 0 -103.5 -47.5t-34.5 -135.5t34.5 -135t103.5 -47z" />
    <glyph glyph-name="r" unicode="r" horiz-adv-x="424" 
d="M70 0v515h77l10 -116q16 61 55 93.5t93 32.5q91 0 113 -93l-68 -48q-22 55 -74 55q-113 0 -113 -196v-243h-93z" />
    <glyph glyph-name="s" unicode="s" horiz-adv-x="458" 
d="M236 -10q-69 0 -124.5 35t-81.5 95l67 41q48 -91 143 -91q41 0 67 19t26 51q0 28 -16.5 44t-54.5 27l-78 22q-130 34 -130 145q0 69 51 108t119 39q126 0 175 -110l-67 -42q-28 72 -106 72q-40 0 -63 -17.5t-23 -45.5q0 -50 63 -67l78 -21q138 -38 138 -147
q0 -73 -51 -115t-132 -42z" />
    <glyph glyph-name="t" unicode="t" horiz-adv-x="360" 
d="M346 515v-82h-142v-433h-93v433h-94v82h98l12 152h77v-152h142z" />
    <glyph glyph-name="u" unicode="u" horiz-adv-x="573" 
d="M236 -10q-171 0 -171 210v315h92v-282q0 -89 26.5 -123t89.5 -34q65 0 101 42.5t36 144.5v252h92v-515h-76l-10 101q-21 -52 -68.5 -81.5t-111.5 -29.5z" />
    <glyph glyph-name="v" unicode="v" horiz-adv-x="511" 
d="M206 0l-189 515h98l140 -410l141 410h98l-189 -515h-99z" />
    <glyph glyph-name="w" unicode="w" horiz-adv-x="777" 
d="M180 0l-159 515h97l110 -407l113 407h95l113 -407l111 407h96l-159 -515h-98l-110 403l-111 -403h-98z" />
    <glyph glyph-name="x" unicode="x" horiz-adv-x="493" 
d="M22 0l172 265l-164 250h103l113 -185l114 185h103l-164 -250l171 -265h-103l-121 198l-120 -198h-104z" />
    <glyph glyph-name="y" unicode="y" horiz-adv-x="492" 
d="M125 -165l68 184l-180 496h99l130 -394l138 394h99l-262 -680h-92z" />
    <glyph glyph-name="z" unicode="z" horiz-adv-x="450" 
d="M36 0v77l266 358h-249v80h351v-77l-267 -358h277v-80h-378z" />
    <glyph glyph-name="braceleft" unicode="{" horiz-adv-x="438" 
d="M326 -165q-99 0 -142 42.5t-43 139.5v128q0 45 -20.5 63t-74.5 18v83q54 0 74.5 18.5t20.5 63.5v127q0 97 42.5 139.5t141.5 42.5h85v-82h-70q-64 0 -86.5 -23t-22.5 -91v-129q0 -90 -74 -107q74 -17 74 -107v-130q0 -68 22.5 -91t86.5 -23h70v-82h-84z" />
    <glyph glyph-name="bar" unicode="|" horiz-adv-x="253" 
d="M81 -115v815h91v-815h-91z" />
    <glyph glyph-name="braceright" unicode="}" horiz-adv-x="438" 
d="M112 -165h-84v82h70q64 0 86.5 23t22.5 91v130q0 90 74 107q-74 17 -74 107v129q0 68 -22.5 91t-86.5 23h-70v82h85q99 0 141.5 -42.5t42.5 -139.5v-127q0 -45 20.5 -63.5t74.5 -18.5v-83q-54 0 -74.5 -18t-20.5 -63v-128q0 -97 -43 -139.5t-142 -42.5z" />
    <glyph glyph-name="asciitilde" unicode="~" horiz-adv-x="457" 
d="M306 310q-30 0 -81 24t-69 24q-42 0 -73 -52l-59 52q54 83 127 83q32 0 82 -24t68 -24q42 0 73 52l59 -53q-55 -82 -127 -82z" />
    <glyph glyph-name="uni00A0" unicode="&#xa0;" horiz-adv-x="211" 
 />
    <glyph glyph-name="exclamdown" unicode="&#xa1;" horiz-adv-x="255" 
d="M127 522q27 0 44 -16t17 -41q0 -26 -17 -42t-44 -16q-26 0 -43 16.5t-17 41.5t17 41t43 16zM82 -165v348l9 125h76l9 -125v-348h-94z" />
    <glyph glyph-name="cent" unicode="&#xa2;" horiz-adv-x="507" 
d="M491 156q-45 -148 -180 -164v-92h-85v95q-81 17 -132.5 84.5t-51.5 177.5q0 111 51 178.5t133 84.5v95h85v-92q138 -17 156 -168l-85 -18q-7 53 -32 78t-74 25q-63 0 -100.5 -48t-37.5 -135t37.5 -134.5t100.5 -47.5q52 0 83 24.5t48 75.5z" />
    <glyph glyph-name="sterling" unicode="&#xa3;" horiz-adv-x="578" 
d="M184 87h338v-87h-456v82q60 56 86.5 94t26.5 85q0 15 -3 30h-110v82h79q-43 99 -43 157q0 83 55 131.5t150 48.5q166 0 201 -167l-73 -48q-11 65 -41.5 95.5t-84.5 30.5q-53 0 -82.5 -26.5t-29.5 -75.5q0 -17 5.5 -38.5t9.5 -32t18 -41t16 -34.5h215v-82h-188
q2 -20 2 -30q0 -80 -91 -174z" />
    <glyph glyph-name="currency" unicode="&#xa4;" horiz-adv-x="572" 
d="M481 311q0 -67 -36 -116l94 -86l-60 -60l-89 98q-45 -25 -103 -25q-69 0 -116 32l-87 -96l-60 60l96 88q-28 45 -28 105q0 67 35 116l-94 87l60 59l89 -98q47 25 105 25q66 0 114 -31l88 95l59 -60l-95 -87q28 -45 28 -106zM173 311q0 -53 30.5 -83.5t83.5 -30.5
q51 0 82 30.5t31 83.5q0 52 -31 83t-82 31q-53 0 -83.5 -30.5t-30.5 -83.5z" />
    <glyph glyph-name="yen" unicode="&#xa5;" horiz-adv-x="576" 
d="M562 700l-141 -281h110v-82h-151l-28 -57h179v-82h-197v-198h-94v198h-190v82h173l-29 57h-144v82h103l-140 281h102l172 -358l173 358h102z" />
    <glyph glyph-name="brokenbar" unicode="&#xa6;" horiz-adv-x="253" 
d="M81 340v360h91v-360h-91zM81 -115v360h91v-360h-91z" />
    <glyph glyph-name="section" unicode="&#xa7;" horiz-adv-x="540" 
d="M279 -175q-168 0 -243 150l78 50q25 -54 68 -82.5t97 -28.5q50 0 81.5 20.5t31.5 61.5q0 32 -23 53t-81 39l-86 27q-158 49 -158 170q0 83 85 129q-78 48 -78 131q0 75 60 120t152 45q162 0 208 -151l-72 -43q-33 105 -139 105q-53 0 -83.5 -21t-30.5 -54
q0 -30 21.5 -48.5t70.5 -33.5l85 -27q90 -29 133 -67t43 -103q0 -86 -77 -139q67 -48 67 -129q0 -82 -59 -128t-151 -46zM339 170q64 33 64 86q0 35 -27 56.5t-80 36.5l-75 22q-35 -6 -58.5 -28.5t-23.5 -53.5q0 -32 21 -51.5t69 -34.5z" />
    <glyph glyph-name="dieresis" unicode="&#xa8;" horiz-adv-x="356" 
d="M91 590q-25 0 -41 15t-16 39q0 23 16 38.5t41 15.5t41 -15.5t16 -38.5q0 -24 -16 -39t-41 -15zM266 590q-25 0 -41 15t-16 39q0 23 16 38.5t41 15.5t41 -15.5t16 -38.5q0 -24 -16 -39t-41 -15z" />
    <glyph glyph-name="copyright" unicode="&#xa9;" horiz-adv-x="833" 
d="M416 -10q-152 0 -253 95.5t-101 264.5q0 170 101 265t253 95t253 -95t101 -265q0 -169 -101 -264.5t-253 -95.5zM416 57q129 0 206 80.5t77 212.5t-77 212.5t-206 80.5q-128 0 -205 -80.5t-77 -212.5t77 -212.5t205 -80.5zM421 149q-76 0 -126 54t-50 147t50.5 147
t125.5 54q133 0 144 -138l-63 -13q-8 87 -81 87q-45 0 -74.5 -34t-29.5 -103t29.5 -103t74.5 -34q39 0 60 18t35 61l65 -14q-16 -62 -57 -95.5t-103 -33.5z" />
    <glyph glyph-name="ordfeminine" unicode="&#xaa;" horiz-adv-x="405" 
d="M201 704q151 0 151 -164v-240h-60l-10 66q-42 -74 -130 -74q-51 0 -83.5 30.5t-32.5 84.5q0 130 209 132q12 0 34 -2v8q0 51 -18.5 72t-60.5 21q-63 0 -88 -60l-58 34q21 46 60.5 69t86.5 23zM176 356q48 0 75.5 25t27.5 91v12q-18 1 -51 1q-117 0 -117 -70q0 -59 65 -59
z" />
    <glyph glyph-name="guillemotleft" unicode="&#xab;" horiz-adv-x="588" 
d="M197 19l-149 238l149 238h99l-149 -238l149 -238h-99zM441 19l-149 238l149 238h99l-149 -238l149 -238h-99z" />
    <glyph glyph-name="logicalnot" unicode="&#xac;" horiz-adv-x="520" 
d="M367 200v153h-312v82h396v-235h-84z" />
    <glyph glyph-name="uni00AD" unicode="&#xad;" horiz-adv-x="452" 
d="M55 266v82h342v-82h-342z" />
    <glyph glyph-name="registered" unicode="&#xae;" horiz-adv-x="833" 
d="M416 710q152 0 253 -95t101 -265q0 -169 -101 -264.5t-253 -95.5t-253 95.5t-101 264.5q0 170 101 265t253 95zM416 57q129 0 206 80.5t77 212.5t-77 212.5t-206 80.5q-128 0 -205 -80.5t-77 -212.5t77 -212.5t205 -80.5zM558 429q0 -77 -66 -102l72 -166h-74l-63 156h-4
h-66v-156h-67v379h133q135 0 135 -111zM357 479v-102h71q63 0 63 52q0 50 -63 50h-71z" />
    <glyph glyph-name="macron" unicode="&#xaf;" horiz-adv-x="352" 
d="M55 604v77h242v-77h-242z" />
    <glyph glyph-name="degree" unicode="&#xb0;" horiz-adv-x="387" 
d="M193 404q-68 0 -112 42.5t-44 107.5t44 107.5t112 42.5q69 0 112.5 -42t43.5 -108t-43.5 -108t-112.5 -42zM193 469q41 0 64 22.5t23 62.5t-23 62.5t-64 22.5q-40 0 -63 -22.5t-23 -62.5t23 -62.5t63 -22.5z" />
    <glyph glyph-name="plusminus" unicode="&#xb1;" horiz-adv-x="521" 
d="M302 456h164v-82h-164v-164h-83v164h-164v82h164v164h83v-164zM55 0v82h411v-82h-411z" />
    <glyph glyph-name="uni00B2" unicode="&#xb2;" horiz-adv-x="317" 
d="M34 415v54l81 94q5 6 24.5 27.5t27.5 31.5t20.5 27.5t18 32t5.5 28.5q0 50 -53 50q-60 0 -73 -80l-51 33q10 49 43.5 78.5t84.5 29.5q53 0 83.5 -29.5t30.5 -76.5q0 -37 -19 -71t-59 -79l-78 -89h166v-61h-252z" />
    <glyph glyph-name="uni00B3" unicode="&#xb3;" horiz-adv-x="339" 
d="M168 409q-99 0 -141 85l50 32q31 -57 91 -57q32 0 50.5 16.5t18.5 44.5q0 62 -81 62h-30v56h26q71 0 71 60q0 25 -15.5 39t-42.5 14q-50 0 -76 -54l-48 32q35 81 126 81q55 0 87 -28t32 -75q0 -62 -54 -91q71 -23 71 -96q0 -53 -37.5 -87t-97.5 -34z" />
    <glyph glyph-name="acute" unicode="&#xb4;" horiz-adv-x="224" 
d="M26 573l64 127h116l-94 -127h-86z" />
    <glyph glyph-name="uni00B5" unicode="&#xb5;" horiz-adv-x="579" 
d="M70 -165v680h92v-282q0 -89 26.5 -123t89.5 -34q65 0 101 42.5t36 144.5v252h93v-515h-77l-10 101q-21 -52 -68.5 -81.5t-109.5 -29.5q-51 0 -81 18v-173h-92z" />
    <glyph glyph-name="paragraph" unicode="&#xb6;" horiz-adv-x="602" 
d="M521 700v-815h-83v731h-94v-731h-83v475h-31q-205 0 -205 170t205 170h291z" />
    <glyph glyph-name="periodcentered" unicode="&#xb7;" horiz-adv-x="229" 
d="M115 250q-27 0 -44 16t-17 41t17 41t44 16q26 0 43 -16t17 -41t-17 -41t-43 -16z" />
    <glyph glyph-name="cedilla" unicode="&#xb8;" horiz-adv-x="238" 
d="M45 -130l47 130h80l-31 -130h-96z" />
    <glyph glyph-name="uni00B9" unicode="&#xb9;" horiz-adv-x="210" 
d="M84 415v324l-63 -16v51l80 41h47v-400h-64z" />
    <glyph glyph-name="ordmasculine" unicode="&#xba;" horiz-adv-x="443" 
d="M221 294q-80 0 -132 54t-52 152t52 152t132 54q81 0 133 -54t52 -152t-52 -152t-133 -54zM221 362q51 0 80 35t29 103q0 67 -29 102.5t-80 35.5q-50 0 -79 -35.5t-29 -102.5t29 -102.5t79 -35.5z" />
    <glyph glyph-name="guillemotright" unicode="&#xbb;" horiz-adv-x="588" 
d="M147 19h-99l149 238l-149 238h99l149 -238zM391 19h-99l149 238l-149 238h99l149 -238z" />
    <glyph glyph-name="onequarter" unicode="&#xbc;" horiz-adv-x="759" 
d="M84 300v324l-63 -16v51l80 41h47v-400h-64zM580 689l48 -40l-521 -638l-49 41zM729 139v-55h-54v-84h-62v84h-176v55l175 261h63v-261h54zM503 139h110v169z" />
    <glyph glyph-name="onehalf" unicode="&#xbd;" horiz-adv-x="794" 
d="M84 300v324l-63 -16v51l80 41h47v-400h-64zM107 11l-49 41l522 637l48 -40zM511 0v54l81 94q5 6 24.5 27.5t27.5 31.5t20.5 27.5t18 32t5.5 28.5q0 50 -53 50q-60 0 -73 -80l-51 33q10 49 43.5 78.5t84.5 29.5q53 0 83.5 -29.5t30.5 -76.5q0 -37 -19 -71t-59 -79l-78 -89
h166v-61h-252z" />
    <glyph glyph-name="threequarters" unicode="&#xbe;" horiz-adv-x="888" 
d="M303 415q0 -53 -37.5 -87t-97.5 -34q-99 0 -141 85l50 32q31 -57 91 -57q32 0 50.5 16.5t18.5 44.5q0 62 -81 62h-30v56h26q71 0 71 60q0 25 -15.5 39t-42.5 14q-50 0 -76 -54l-48 32q35 81 126 81q55 0 87 -28t32 -75q0 -62 -54 -91q71 -23 71 -96zM709 689l48 -40
l-521 -638l-49 41zM858 139v-55h-54v-84h-62v84h-176v55l175 261h63v-261h54zM632 139h110v169z" />
    <glyph glyph-name="questiondown" unicode="&#xbf;" horiz-adv-x="449" 
d="M230 522q27 0 44 -16t17 -41q0 -26 -17 -42t-44 -16q-26 0 -43 16.5t-17 41.5t17 41t43 16zM222 -175q-84 0 -134.5 43.5t-50.5 112.5q0 45 22 76.5t67 58.5l48 30q28 18 38.5 30.5t10.5 32.5q0 41 -76 56l26 72q73 -12 107.5 -45t34.5 -80q0 -67 -78 -117l-51 -33
q-29 -18 -41.5 -34.5t-12.5 -40.5q0 -32 24 -53.5t69 -21.5q107 0 141 115l71 -45q-21 -74 -77 -115.5t-138 -41.5z" />
    <glyph glyph-name="Agrave" unicode="&#xc0;" horiz-adv-x="636" 
d="M366 758h-86l-94 127h116zM521 0l-62 181h-281l-62 -181h-98l248 700h104l248 -700h-97zM207 267h223l-112 326z" />
    <glyph glyph-name="Aacute" unicode="&#xc1;" horiz-adv-x="636" 
d="M450 885l-94 -127h-86l64 127h116zM521 0l-62 181h-281l-62 -181h-98l248 700h104l248 -700h-97zM207 267h223l-112 326z" />
    <glyph glyph-name="Acircumflex" unicode="&#xc2;" horiz-adv-x="636" 
d="M318 820l-55 -62h-87l87 127h111l86 -127h-87zM521 0l-62 181h-281l-62 -181h-98l248 700h104l248 -700h-97zM207 267h223l-112 326z" />
    <glyph glyph-name="Atilde" unicode="&#xc3;" horiz-adv-x="636" 
d="M258 809q-29 0 -55 -44l-56 50q46 74 108 74q29 0 68.5 -20t54.5 -20q28 0 54 44l56 -50q-47 -74 -107 -74q-27 0 -67 20t-56 20zM521 0l-62 181h-281l-62 -181h-98l248 700h104l248 -700h-97zM207 267h223l-112 326z" />
    <glyph glyph-name="Adieresis" unicode="&#xc4;" horiz-adv-x="636" 
d="M231 775q-25 0 -41 15t-16 39q0 23 16 38.5t41 15.5t41 -15.5t16 -38.5q0 -24 -16 -39t-41 -15zM406 775q-25 0 -41 15t-16 39q0 23 16 38.5t41 15.5t41 -15.5t16 -38.5q0 -24 -16 -39t-41 -15zM521 0l-62 181h-281l-62 -181h-98l248 700h104l248 -700h-97zM207 267h223
l-112 326z" />
    <glyph glyph-name="Aring" unicode="&#xc5;" horiz-adv-x="636" 
d="M318 743q-40 0 -65 23.5t-25 62.5q0 40 25 63t65 23q39 0 64.5 -23t25.5 -63q0 -39 -25.5 -62.5t-64.5 -23.5zM318 860q-31 0 -31 -31q0 -32 31 -32q13 0 22 8.5t9 23.5q0 31 -31 31zM521 0l-62 181h-281l-62 -181h-98l248 700h104l248 -700h-97zM207 267h223l-112 326z
" />
    <glyph glyph-name="AE" unicode="&#xc6;" horiz-adv-x="967" 
d="M572 88h356v-88h-450v181h-275l-86 -181h-102l335 700h572v-88h-350v-207h319v-89h-319v-228zM244 267h234v345h-69z" />
    <glyph glyph-name="Ccedilla" unicode="&#xc7;" horiz-adv-x="661" 
d="M637 214q-58 -202 -243 -222l-29 -122h-96l44 123q-117 15 -190.5 108.5t-73.5 248.5q0 168 88 264t219 96q225 0 251 -240l-89 -19q-18 170 -162 170q-88 0 -148 -71t-60 -200q0 -130 60 -200.5t148 -70.5q73 0 119 38t71 117z" />
    <glyph glyph-name="Egrave" unicode="&#xc8;" horiz-adv-x="570" 
d="M269 758l-94 127h116l64 -127h-86zM81 0v700h444v-88h-350v-207h319v-89h-319v-228h356v-88h-450z" />
    <glyph glyph-name="Eacute" unicode="&#xc9;" horiz-adv-x="570" 
d="M259 758l64 127h116l-94 -127h-86zM81 0v700h444v-88h-350v-207h319v-89h-319v-228h356v-88h-450z" />
    <glyph glyph-name="Ecircumflex" unicode="&#xca;" horiz-adv-x="570" 
d="M165 758l87 127h111l86 -127h-87l-55 62l-55 -62h-87zM81 0v700h444v-88h-350v-207h319v-89h-319v-228h356v-88h-450z" />
    <glyph glyph-name="Edieresis" unicode="&#xcb;" horiz-adv-x="570" 
d="M219 775q-25 0 -41 15t-16 39q0 23 16 38.5t41 15.5t41 -15.5t16 -38.5q0 -24 -16 -39t-41 -15zM394 775q-25 0 -41 15t-16 39q0 23 16 38.5t41 15.5t41 -15.5t16 -38.5q0 -24 -16 -39t-41 -15zM81 0v700h444v-88h-350v-207h319v-89h-319v-228h356v-88h-450z" />
    <glyph glyph-name="Igrave" unicode="&#xcc;" horiz-adv-x="256" 
d="M90 758l-94 127h116l64 -127h-86zM81 0v700h94v-700h-94z" />
    <glyph glyph-name="Iacute" unicode="&#xcd;" horiz-adv-x="256" 
d="M80 758l64 127h116l-94 -127h-86zM81 0v700h94v-700h-94z" />
    <glyph glyph-name="Icircumflex" unicode="&#xce;" horiz-adv-x="256" 
d="M-14 758l87 127h111l86 -127h-87l-55 62l-55 -62h-87zM81 0v700h94v-700h-94z" />
    <glyph glyph-name="Idieresis" unicode="&#xcf;" horiz-adv-x="256" 
d="M40 775q-25 0 -41 15t-16 39q0 23 16 38.5t41 15.5t41 -15.5t16 -38.5q0 -24 -16 -39t-41 -15zM215 775q-25 0 -41 15t-16 39q0 23 16 38.5t41 15.5t41 -15.5t16 -38.5q0 -24 -16 -39t-41 -15zM81 0v700h94v-700h-94z" />
    <glyph glyph-name="Eth" unicode="&#xd0;" horiz-adv-x="690" 
d="M309 700q168 0 250 -85.5t82 -264.5t-82 -264.5t-250 -85.5h-201v309h-82v82h82v309h201zM309 88q119 0 178 63t59 199t-59 199t-178 63h-107v-221h161v-82h-161v-221h107z" />
    <glyph glyph-name="Ntilde" unicode="&#xd1;" horiz-adv-x="704" 
d="M237 765l-56 50q46 74 108 74q29 0 68.5 -20t54.5 -20q28 0 54 44l56 -50q-47 -74 -107 -74q-27 0 -67 20t-56 20q-29 0 -55 -44zM81 0v700h107l344 -566v566h91v-700h-107l-344 553v-553h-91z" />
    <glyph glyph-name="Ograve" unicode="&#xd2;" horiz-adv-x="741" 
d="M333 758l-94 127h116l64 -127h-86zM371 -10q-142 0 -232 95t-90 265t90 265t232 95q141 0 230.5 -95t89.5 -265t-89.5 -265t-230.5 -95zM371 79q98 0 160 70t62 201q0 130 -62.5 200.5t-159.5 70.5q-98 0 -160.5 -70.5t-62.5 -200.5q0 -131 62.5 -201t160.5 -70z" />
    <glyph glyph-name="Oacute" unicode="&#xd3;" horiz-adv-x="741" 
d="M323 758l64 127h116l-94 -127h-86zM371 -10q-142 0 -232 95t-90 265t90 265t232 95q141 0 230.5 -95t89.5 -265t-89.5 -265t-230.5 -95zM371 79q98 0 160 70t62 201q0 130 -62.5 200.5t-159.5 70.5q-98 0 -160.5 -70.5t-62.5 -200.5q0 -131 62.5 -201t160.5 -70z" />
    <glyph glyph-name="Ocircumflex" unicode="&#xd4;" horiz-adv-x="741" 
d="M229 758l87 127h111l86 -127h-87l-55 62l-55 -62h-87zM371 -10q-142 0 -232 95t-90 265t90 265t232 95q141 0 230.5 -95t89.5 -265t-89.5 -265t-230.5 -95zM371 79q98 0 160 70t62 201q0 130 -62.5 200.5t-159.5 70.5q-98 0 -160.5 -70.5t-62.5 -200.5q0 -131 62.5 -201
t160.5 -70z" />
    <glyph glyph-name="Otilde" unicode="&#xd5;" horiz-adv-x="741" 
d="M256 765l-56 50q46 74 108 74q29 0 68.5 -20t54.5 -20q28 0 54 44l56 -50q-47 -74 -107 -74q-27 0 -67 20t-56 20q-29 0 -55 -44zM371 -10q-142 0 -232 95t-90 265t90 265t232 95q141 0 230.5 -95t89.5 -265t-89.5 -265t-230.5 -95zM371 79q98 0 160 70t62 201
q0 130 -62.5 200.5t-159.5 70.5q-98 0 -160.5 -70.5t-62.5 -200.5q0 -131 62.5 -201t160.5 -70z" />
    <glyph glyph-name="Odieresis" unicode="&#xd6;" horiz-adv-x="741" 
d="M283 775q-25 0 -41 15t-16 39q0 23 16 38.5t41 15.5t41 -15.5t16 -38.5q0 -24 -16 -39t-41 -15zM458 775q-25 0 -41 15t-16 39q0 23 16 38.5t41 15.5t41 -15.5t16 -38.5q0 -24 -16 -39t-41 -15zM371 -10q-142 0 -232 95t-90 265t90 265t232 95q141 0 230.5 -95t89.5 -265
t-89.5 -265t-230.5 -95zM371 79q98 0 160 70t62 201q0 130 -62.5 200.5t-159.5 70.5q-98 0 -160.5 -70.5t-62.5 -200.5q0 -131 62.5 -201t160.5 -70z" />
    <glyph glyph-name="multiply" unicode="&#xd7;" horiz-adv-x="439" 
d="M393 450l-116 -116l116 -116l-58 -58l-116 116l-116 -116l-58 58l116 116l-116 116l58 58l116 -116l116 116z" />
    <glyph glyph-name="Oslash" unicode="&#xd8;" horiz-adv-x="741" 
d="M587 630q104 -98 104 -280q0 -170 -89.5 -265t-230.5 -95q-83 0 -149 33l-32 -53l-72 39l36 60q-105 99 -105 281q0 170 90 265t232 95q83 0 149 -33l32 53l72 -39zM148 350q0 -122 58 -195l266 442q-45 24 -101 24q-98 0 -160.5 -70.5t-62.5 -200.5zM371 79q98 0 160 70
t62 201q0 121 -57 194l-266 -442q46 -23 101 -23z" />
    <glyph glyph-name="Ugrave" unicode="&#xd9;" horiz-adv-x="695" 
d="M310 758l-94 127h116l64 -127h-86zM348 -10q-133 0 -202 74t-69 239v397h94v-386q0 -128 42.5 -181.5t134.5 -53.5q89 0 133 54t44 182v385h94l-1 -397q-1 -165 -69.5 -239t-200.5 -74z" />
    <glyph glyph-name="Uacute" unicode="&#xda;" horiz-adv-x="695" 
d="M300 758l64 127h116l-94 -127h-86zM348 -10q-133 0 -202 74t-69 239v397h94v-386q0 -128 42.5 -181.5t134.5 -53.5q89 0 133 54t44 182v385h94l-1 -397q-1 -165 -69.5 -239t-200.5 -74z" />
    <glyph glyph-name="Ucircumflex" unicode="&#xdb;" horiz-adv-x="695" 
d="M206 758l87 127h111l86 -127h-87l-55 62l-55 -62h-87zM348 -10q-133 0 -202 74t-69 239v397h94v-386q0 -128 42.5 -181.5t134.5 -53.5q89 0 133 54t44 182v385h94l-1 -397q-1 -165 -69.5 -239t-200.5 -74z" />
    <glyph glyph-name="Udieresis" unicode="&#xdc;" horiz-adv-x="695" 
d="M260 775q-25 0 -41 15t-16 39q0 23 16 38.5t41 15.5t41 -15.5t16 -38.5q0 -24 -16 -39t-41 -15zM435 775q-25 0 -41 15t-16 39q0 23 16 38.5t41 15.5t41 -15.5t16 -38.5q0 -24 -16 -39t-41 -15zM348 -10q-133 0 -202 74t-69 239v397h94v-386q0 -128 42.5 -181.5
t134.5 -53.5q89 0 133 54t44 182v385h94l-1 -397q-1 -165 -69.5 -239t-200.5 -74z" />
    <glyph glyph-name="Yacute" unicode="&#xdd;" horiz-adv-x="576" 
d="M420 885l-94 -127h-86l64 127h116zM562 700l-227 -456v-244h-94v244l-228 456h102l173 -358l173 358h101z" />
    <glyph glyph-name="Thorn" unicode="&#xde;" horiz-adv-x="596" 
d="M332 559q114 0 173.5 -53t59.5 -156t-59.5 -156t-173.5 -53h-157v-141h-94v700h94v-141h157zM332 230q138 0 138 120t-138 120h-157v-240h157z" />
    <glyph glyph-name="germandbls" unicode="&#xdf;" horiz-adv-x="632" 
d="M379 372q0 -23 23 -39t56 -28.5t66 -28.5t56 -49t23 -81q0 -71 -45 -113.5t-114 -42.5q-125 0 -178 114l70 42q35 -71 106 -71q31 0 50.5 18.5t19.5 49.5q0 29 -23 49t-56 33t-66.5 28.5t-56.5 44t-23 69.5q0 32 19.5 60.5t43.5 46.5t43.5 42.5t19.5 47.5q0 32 -25 48.5
t-68 16.5q-121 0 -121 -139v-490h-92v433h-90v82h90q3 98 59.5 148.5t156.5 50.5q84 0 134 -38.5t50 -105.5q0 -38 -20 -70.5t-44 -51t-44 -39t-20 -37.5z" />
    <glyph glyph-name="agrave" unicode="&#xe0;" horiz-adv-x="518" 
d="M309 573h-86l-94 127h116zM258 525q94 0 144.5 -50t50.5 -163v-312h-75l-13 87q-55 -97 -171 -97q-67 0 -109 40t-42 109q0 173 272 173q15 0 47 -2v9q0 68 -25 95t-83 27q-86 0 -116 -78l-72 42q28 61 79 90.5t113 29.5zM225 69q137 0 137 154v16q-50 2 -69 2
q-157 0 -157 -91q0 -40 25 -60.5t64 -20.5z" />
    <glyph glyph-name="aacute" unicode="&#xe1;" horiz-adv-x="518" 
d="M393 700l-94 -127h-86l64 127h116zM258 525q94 0 144.5 -50t50.5 -163v-312h-75l-13 87q-55 -97 -171 -97q-67 0 -109 40t-42 109q0 173 272 173q15 0 47 -2v9q0 68 -25 95t-83 27q-86 0 -116 -78l-72 42q28 61 79 90.5t113 29.5zM225 69q137 0 137 154v16q-50 2 -69 2
q-157 0 -157 -91q0 -40 25 -60.5t64 -20.5z" />
    <glyph glyph-name="acircumflex" unicode="&#xe2;" horiz-adv-x="518" 
d="M261 635l-55 -62h-87l87 127h111l86 -127h-87zM258 525q94 0 144.5 -50t50.5 -163v-312h-75l-13 87q-55 -97 -171 -97q-67 0 -109 40t-42 109q0 173 272 173q15 0 47 -2v9q0 68 -25 95t-83 27q-86 0 -116 -78l-72 42q28 61 79 90.5t113 29.5zM225 69q137 0 137 154v16
q-50 2 -69 2q-157 0 -157 -91q0 -40 25 -60.5t64 -20.5z" />
    <glyph glyph-name="atilde" unicode="&#xe3;" horiz-adv-x="518" 
d="M201 624q-29 0 -55 -44l-56 50q46 74 108 74q29 0 68.5 -20t54.5 -20q28 0 54 44l56 -50q-47 -74 -107 -74q-27 0 -67 20t-56 20zM258 525q94 0 144.5 -50t50.5 -163v-312h-75l-13 87q-55 -97 -171 -97q-67 0 -109 40t-42 109q0 173 272 173q15 0 47 -2v9q0 68 -25 95
t-83 27q-86 0 -116 -78l-72 42q28 61 79 90.5t113 29.5zM225 69q137 0 137 154v16q-50 2 -69 2q-157 0 -157 -91q0 -40 25 -60.5t64 -20.5z" />
    <glyph glyph-name="adieresis" unicode="&#xe4;" horiz-adv-x="518" 
d="M174 590q-25 0 -41 15t-16 39q0 23 16 38.5t41 15.5t41 -15.5t16 -38.5q0 -24 -16 -39t-41 -15zM349 590q-25 0 -41 15t-16 39q0 23 16 38.5t41 15.5t41 -15.5t16 -38.5q0 -24 -16 -39t-41 -15zM258 525q94 0 144.5 -50t50.5 -163v-312h-75l-13 87q-55 -97 -171 -97
q-67 0 -109 40t-42 109q0 173 272 173q15 0 47 -2v9q0 68 -25 95t-83 27q-86 0 -116 -78l-72 42q28 61 79 90.5t113 29.5zM225 69q137 0 137 154v16q-50 2 -69 2q-157 0 -157 -91q0 -40 25 -60.5t64 -20.5z" />
    <glyph glyph-name="aring" unicode="&#xe5;" horiz-adv-x="518" 
d="M261 558q-40 0 -65 23.5t-25 62.5q0 40 25 63t65 23q39 0 64.5 -23t25.5 -63q0 -39 -25.5 -62.5t-64.5 -23.5zM261 675q-31 0 -31 -31q0 -32 31 -32q13 0 22 8.5t9 23.5q0 31 -31 31zM258 525q94 0 144.5 -50t50.5 -163v-312h-75l-13 87q-55 -97 -171 -97q-67 0 -109 40
t-42 109q0 173 272 173q15 0 47 -2v9q0 68 -25 95t-83 27q-86 0 -116 -78l-72 42q28 61 79 90.5t113 29.5zM225 69q137 0 137 154v16q-50 2 -69 2q-157 0 -157 -91q0 -40 25 -60.5t64 -20.5z" />
    <glyph glyph-name="ae" unicode="&#xe6;" horiz-adv-x="859" 
d="M604 72q92 0 125 80l85 -19q-28 -73 -84.5 -108t-127.5 -35q-68 0 -122.5 31t-78.5 92q-50 -123 -194 -123q-77 0 -120.5 39.5t-43.5 109.5q0 169 278 169h41v13q-1 120 -107 120q-87 0 -117 -78l-72 42q28 61 79 90.5t114 29.5q128 0 161 -100q25 49 74 74.5t107 25.5
q94 0 153.5 -54.5t59.5 -157.5q0 -35 -9 -81h-348q5 -78 43.5 -119t103.5 -41zM600 443q-59 0 -96.5 -33t-45.5 -103h264q1 10 1 19q0 57 -32.5 87t-90.5 30zM227 69q135 0 135 154v11h-55q-91 0 -131 -20t-40 -64q0 -40 25 -60.5t66 -20.5z" />
    <glyph glyph-name="ccedilla" unicode="&#xe7;" horiz-adv-x="507" 
d="M491 156q-44 -142 -172 -163l-29 -123h-96l44 123q-86 13 -141 81.5t-55 182.5q0 128 67 198t167 70q171 0 191 -170l-85 -18q-7 53 -32 78t-74 25q-63 0 -100.5 -48t-37.5 -135t37.5 -134.5t100.5 -47.5q52 0 83 24.5t48 75.5z" />
    <glyph glyph-name="egrave" unicode="&#xe8;" horiz-adv-x="537" 
d="M326 573h-86l-94 127h116zM282 72q93 0 124 80l85 -19q-27 -73 -83.5 -108t-127.5 -35q-104 0 -171 70.5t-67 196.5t66.5 197t169.5 71q94 0 154 -57t60 -161q0 -39 -10 -83h-347q7 -74 45.5 -113t101.5 -39zM278 443q-58 0 -95 -35.5t-47 -105.5h264q1 9 1 18
q0 57 -32.5 90t-90.5 33z" />
    <glyph glyph-name="eacute" unicode="&#xe9;" horiz-adv-x="537" 
d="M410 700l-94 -127h-86l64 127h116zM282 72q93 0 124 80l85 -19q-27 -73 -83.5 -108t-127.5 -35q-104 0 -171 70.5t-67 196.5t66.5 197t169.5 71q94 0 154 -57t60 -161q0 -39 -10 -83h-347q7 -74 45.5 -113t101.5 -39zM278 443q-58 0 -95 -35.5t-47 -105.5h264q1 9 1 18
q0 57 -32.5 90t-90.5 33z" />
    <glyph glyph-name="ecircumflex" unicode="&#xea;" horiz-adv-x="537" 
d="M278 635l-55 -62h-87l87 127h111l86 -127h-87zM282 72q93 0 124 80l85 -19q-27 -73 -83.5 -108t-127.5 -35q-104 0 -171 70.5t-67 196.5t66.5 197t169.5 71q94 0 154 -57t60 -161q0 -39 -10 -83h-347q7 -74 45.5 -113t101.5 -39zM278 443q-58 0 -95 -35.5t-47 -105.5h264
q1 9 1 18q0 57 -32.5 90t-90.5 33z" />
    <glyph glyph-name="edieresis" unicode="&#xeb;" horiz-adv-x="537" 
d="M191 590q-25 0 -41 15t-16 39q0 23 16 38.5t41 15.5t41 -15.5t16 -38.5q0 -24 -16 -39t-41 -15zM366 590q-25 0 -41 15t-16 39q0 23 16 38.5t41 15.5t41 -15.5t16 -38.5q0 -24 -16 -39t-41 -15zM282 72q93 0 124 80l85 -19q-27 -73 -83.5 -108t-127.5 -35
q-104 0 -171 70.5t-67 196.5t66.5 197t169.5 71q94 0 154 -57t60 -161q0 -39 -10 -83h-347q7 -74 45.5 -113t101.5 -39zM278 443q-58 0 -95 -35.5t-47 -105.5h264q1 9 1 18q0 57 -32.5 90t-90.5 33z" />
    <glyph glyph-name="igrave" unicode="&#xec;" horiz-adv-x="233" 
d="M79 573l-94 127h116l64 -127h-86zM70 0v515h93v-515h-93z" />
    <glyph glyph-name="iacute" unicode="&#xed;" horiz-adv-x="233" 
d="M69 573l64 127h116l-94 -127h-86zM70 0v515h93v-515h-93z" />
    <glyph glyph-name="icircumflex" unicode="&#xee;" horiz-adv-x="233" 
d="M-25 573l87 127h111l86 -127h-87l-55 62l-55 -62h-87zM70 0v515h93v-515h-93z" />
    <glyph glyph-name="idieresis" unicode="&#xef;" horiz-adv-x="233" 
d="M29 590q-25 0 -41 15t-16 39q0 23 16 38.5t41 15.5t41 -15.5t16 -38.5q0 -24 -16 -39t-41 -15zM204 590q-25 0 -41 15t-16 39q0 23 16 38.5t41 15.5t41 -15.5t16 -38.5q0 -24 -16 -39t-41 -15zM70 0v515h93v-515h-93z" />
    <glyph glyph-name="eth" unicode="&#xf0;" horiz-adv-x="571" 
d="M441 592q83 -97 83 -261q0 -168 -66.5 -254.5t-182.5 -86.5q-104 0 -168.5 67t-64.5 167q0 108 62.5 166.5t153.5 58.5q64 0 109 -30t65 -85v25q-6 119 -67 190l-103 -58l-28 52l83 47q-52 35 -132 50l25 74q115 -22 186 -79l83 47l29 -53zM273 79q62 0 101.5 38
t39.5 107q0 68 -39 104.5t-101 36.5q-60 0 -98.5 -36.5t-38.5 -104.5q0 -66 38 -105.5t98 -39.5z" />
    <glyph glyph-name="ntilde" unicode="&#xf1;" horiz-adv-x="573" 
d="M172 580l-56 50q46 74 108 74q29 0 68.5 -20t54.5 -20q28 0 54 44l56 -50q-47 -74 -107 -74q-27 0 -67 20t-56 20q-29 0 -55 -44zM70 0v515h77l10 -116q37 126 180 126q171 0 171 -210v-315h-92v282q0 90 -26.5 123.5t-89.5 33.5q-66 0 -101.5 -44t-35.5 -147v-248h-93z
" />
    <glyph glyph-name="ograve" unicode="&#xf2;" horiz-adv-x="565" 
d="M245 573l-94 127h116l64 -127h-86zM283 -10q-106 0 -173.5 69.5t-67.5 197.5q0 129 67.5 198.5t173.5 69.5q105 0 172.5 -69.5t67.5 -198.5q0 -128 -67.5 -197.5t-172.5 -69.5zM283 75q68 0 106 47t38 135t-38 135.5t-106 47.5t-106.5 -47.5t-38.5 -135.5t38.5 -135
t106.5 -47z" />
    <glyph glyph-name="oacute" unicode="&#xf3;" horiz-adv-x="565" 
d="M235 573l64 127h116l-94 -127h-86zM283 -10q-106 0 -173.5 69.5t-67.5 197.5q0 129 67.5 198.5t173.5 69.5q105 0 172.5 -69.5t67.5 -198.5q0 -128 -67.5 -197.5t-172.5 -69.5zM283 75q68 0 106 47t38 135t-38 135.5t-106 47.5t-106.5 -47.5t-38.5 -135.5t38.5 -135
t106.5 -47z" />
    <glyph glyph-name="ocircumflex" unicode="&#xf4;" horiz-adv-x="565" 
d="M141 573l87 127h111l86 -127h-87l-55 62l-55 -62h-87zM283 -10q-106 0 -173.5 69.5t-67.5 197.5q0 129 67.5 198.5t173.5 69.5q105 0 172.5 -69.5t67.5 -198.5q0 -128 -67.5 -197.5t-172.5 -69.5zM283 75q68 0 106 47t38 135t-38 135.5t-106 47.5t-106.5 -47.5
t-38.5 -135.5t38.5 -135t106.5 -47z" />
    <glyph glyph-name="otilde" unicode="&#xf5;" horiz-adv-x="565" 
d="M168 580l-56 50q46 74 108 74q29 0 68.5 -20t54.5 -20q28 0 54 44l56 -50q-47 -74 -107 -74q-27 0 -67 20t-56 20q-29 0 -55 -44zM283 -10q-106 0 -173.5 69.5t-67.5 197.5q0 129 67.5 198.5t173.5 69.5q105 0 172.5 -69.5t67.5 -198.5q0 -128 -67.5 -197.5t-172.5 -69.5
zM283 75q68 0 106 47t38 135t-38 135.5t-106 47.5t-106.5 -47.5t-38.5 -135.5t38.5 -135t106.5 -47z" />
    <glyph glyph-name="odieresis" unicode="&#xf6;" horiz-adv-x="565" 
d="M195 590q-25 0 -41 15t-16 39q0 23 16 38.5t41 15.5t41 -15.5t16 -38.5q0 -24 -16 -39t-41 -15zM370 590q-25 0 -41 15t-16 39q0 23 16 38.5t41 15.5t41 -15.5t16 -38.5q0 -24 -16 -39t-41 -15zM283 -10q-106 0 -173.5 69.5t-67.5 197.5q0 129 67.5 198.5t173.5 69.5
q105 0 172.5 -69.5t67.5 -198.5q0 -128 -67.5 -197.5t-172.5 -69.5zM283 75q68 0 106 47t38 135t-38 135.5t-106 47.5t-106.5 -47.5t-38.5 -135.5t38.5 -135t106.5 -47z" />
    <glyph glyph-name="divide" unicode="&#xf7;" horiz-adv-x="521" 
d="M261 468q-27 0 -44 16t-17 41q0 26 17 42t44 16q26 0 43 -16.5t17 -41.5t-17 -41t-43 -16zM55 293v82h411v-82h-411zM261 85q-27 0 -44 16t-17 42q0 25 17 41t44 16q26 0 43 -16t17 -41t-17 -41.5t-43 -16.5z" />
    <glyph glyph-name="oslash" unicode="&#xf8;" horiz-adv-x="568" 
d="M429 480q95 -70 95 -223q0 -128 -67.5 -197.5t-172.5 -69.5q-47 0 -88 15l-23 -48l-60 27l25 52q-94 71 -94 221q0 129 67.5 198.5t172.5 69.5q45 0 87 -14l23 47l60 -26zM137 257q0 -90 41 -139l156 317q-21 7 -50 7q-69 0 -108 -47.5t-39 -137.5zM284 73q69 0 108 47.5
t39 136.5q0 93 -42 141l-156 -317q26 -8 51 -8z" />
    <glyph glyph-name="ugrave" unicode="&#xf9;" horiz-adv-x="573" 
d="M246 573l-94 127h116l64 -127h-86zM236 -10q-171 0 -171 210v315h92v-282q0 -89 26.5 -123t89.5 -34q65 0 101 42.5t36 144.5v252h92v-515h-76l-10 101q-21 -52 -68.5 -81.5t-111.5 -29.5z" />
    <glyph glyph-name="uacute" unicode="&#xfa;" horiz-adv-x="573" 
d="M236 573l64 127h116l-94 -127h-86zM236 -10q-171 0 -171 210v315h92v-282q0 -89 26.5 -123t89.5 -34q65 0 101 42.5t36 144.5v252h92v-515h-76l-10 101q-21 -52 -68.5 -81.5t-111.5 -29.5z" />
    <glyph glyph-name="ucircumflex" unicode="&#xfb;" horiz-adv-x="573" 
d="M142 573l87 127h111l86 -127h-87l-55 62l-55 -62h-87zM236 -10q-171 0 -171 210v315h92v-282q0 -89 26.5 -123t89.5 -34q65 0 101 42.5t36 144.5v252h92v-515h-76l-10 101q-21 -52 -68.5 -81.5t-111.5 -29.5z" />
    <glyph glyph-name="udieresis" unicode="&#xfc;" horiz-adv-x="573" 
d="M196 590q-25 0 -41 15t-16 39q0 23 16 38.5t41 15.5t41 -15.5t16 -38.5q0 -24 -16 -39t-41 -15zM371 590q-25 0 -41 15t-16 39q0 23 16 38.5t41 15.5t41 -15.5t16 -38.5q0 -24 -16 -39t-41 -15zM236 -10q-171 0 -171 210v315h92v-282q0 -89 26.5 -123t89.5 -34
q65 0 101 42.5t36 144.5v252h92v-515h-76l-10 101q-21 -52 -68.5 -81.5t-111.5 -29.5z" />
    <glyph glyph-name="yacute" unicode="&#xfd;" horiz-adv-x="492" 
d="M197 573l64 127h116l-94 -127h-86zM125 -165l68 184l-180 496h99l130 -394l138 394h99l-262 -680h-92z" />
    <glyph glyph-name="thorn" unicode="&#xfe;" horiz-adv-x="584" 
d="M70 -165v865h93v-278q46 103 174 103q91 0 145.5 -68.5t54.5 -199.5q0 -129 -56.5 -198t-145.5 -69q-117 0 -172 101v-256h-93zM304 75q69 0 103.5 47t34.5 135t-34.5 135.5t-103.5 47.5q-67 0 -105 -45.5t-38 -139.5q0 -83 38 -131.5t105 -48.5z" />
    <glyph glyph-name="ydieresis" unicode="&#xff;" horiz-adv-x="492" 
d="M158 590q-25 0 -41 15t-16 39q0 23 16 38.5t41 15.5t41 -15.5t16 -38.5q0 -24 -16 -39t-41 -15zM333 590q-25 0 -41 15t-16 39q0 23 16 38.5t41 15.5t41 -15.5t16 -38.5q0 -24 -16 -39t-41 -15zM125 -165l68 184l-180 496h99l130 -394l138 394h99l-262 -680h-92z" />
    <glyph glyph-name="dotlessi" unicode="&#x131;" horiz-adv-x="233" 
d="M70 0v515h93v-515h-93z" />
    <glyph glyph-name="Lslash" unicode="&#x141;" horiz-adv-x="571" 
d="M195 88h348v-88h-442v233l-89 -52v91l89 52v376h94v-322l166 96v-90l-166 -97v-199z" />
    <glyph glyph-name="lslash" unicode="&#x142;" horiz-adv-x="324" 
d="M308 490v-91l-102 -60v-339h-92v286l-99 -58v92l99 57v323h92v-269z" />
    <glyph glyph-name="OE" unicode="&#x152;" horiz-adv-x="1075" 
d="M365 -10q-136 0 -226 95.5t-90 264.5t90 264.5t226 95.5q153 0 222 -116v106h444v-88h-350v-207h319v-89h-319v-228h355v-88h-449v106q-70 -116 -222 -116zM365 79q97 0 157 70t60 201t-60 201t-157 70q-94 0 -155.5 -70.5t-61.5 -200.5t61.5 -200.5t155.5 -70.5z" />
    <glyph glyph-name="oe" unicode="&#x153;" horiz-adv-x="926" 
d="M282 -10q-105 0 -172.5 69.5t-67.5 197.5q0 129 67.5 198.5t172.5 69.5q63 0 116.5 -31.5t77.5 -87.5q24 56 77 87.5t114 31.5q94 0 154 -57t60 -161q0 -39 -10 -83h-348q8 -73 46 -112.5t102 -39.5q91 0 124 80l85 -19q-27 -73 -84 -108t-128 -35q-63 0 -115.5 31
t-76.5 89q-25 -59 -77.5 -89.5t-116.5 -30.5zM524 302h265q1 9 1 18q0 58 -33 90.5t-90 32.5q-56 0 -94 -35t-49 -106zM282 75q68 0 106.5 46.5t38.5 135.5q0 88 -38.5 135.5t-106.5 47.5t-106.5 -47.5t-38.5 -135.5q0 -87 38.5 -134.5t106.5 -47.5z" />
    <glyph glyph-name="Scaron" unicode="&#x160;" horiz-adv-x="567" 
d="M143 885h87l55 -62l55 62h87l-86 -127h-111zM295 -10q-183 0 -261 169l78 50q55 -130 187 -130q60 0 96.5 28.5t36.5 81.5q0 76 -112 108l-90 26q-168 48 -168 198q0 85 62 137t161 52q83 0 139.5 -41.5t81.5 -120.5l-73 -47q-15 61 -56.5 90.5t-91.5 29.5
q-60 0 -94 -27.5t-34 -71.5q0 -82 102 -111l93 -27q87 -25 132 -70.5t45 -121.5q0 -92 -65.5 -147t-168.5 -55z" />
    <glyph glyph-name="scaron" unicode="&#x161;" horiz-adv-x="458" 
d="M85 700h87l55 -62l55 62h87l-86 -127h-111zM236 -10q-69 0 -124.5 35t-81.5 95l67 41q48 -91 143 -91q41 0 67 19t26 51q0 28 -16.5 44t-54.5 27l-78 22q-130 34 -130 145q0 69 51 108t119 39q126 0 175 -110l-67 -42q-28 72 -106 72q-40 0 -63 -17.5t-23 -45.5
q0 -50 63 -67l78 -21q138 -38 138 -147q0 -73 -51 -115t-132 -42z" />
    <glyph glyph-name="Ydieresis" unicode="&#x178;" horiz-adv-x="576" 
d="M200 775q-25 0 -41 15t-16 39q0 23 16 38.5t41 15.5t41 -15.5t16 -38.5q0 -24 -16 -39t-41 -15zM375 775q-25 0 -41 15t-16 39q0 23 16 38.5t41 15.5t41 -15.5t16 -38.5q0 -24 -16 -39t-41 -15zM562 700l-227 -456v-244h-94v244l-228 456h102l173 -358l173 358h101z" />
    <glyph glyph-name="Zcaron" unicode="&#x17d;" horiz-adv-x="530" 
d="M128 885h87l55 -62l55 62h87l-86 -127h-111zM35 0v81l343 533h-322v86h432v-82l-343 -532h350v-86h-460z" />
    <glyph glyph-name="zcaron" unicode="&#x17e;" horiz-adv-x="450" 
d="M83 700h87l55 -62l55 62h87l-86 -127h-111zM36 0v77l266 358h-249v80h351v-77l-267 -358h277v-80h-378z" />
    <glyph glyph-name="florin" unicode="&#x192;" horiz-adv-x="532" 
d="M409 633q-39 0 -61 -23.5t-30 -88.5l-13 -119h161v-82h-170l-34 -309q-20 -187 -171 -187q-74 0 -134 46l39 66q40 -31 83 -31q39 0 61 23.5t30 88.5l33 303h-121v82h130l14 125q20 187 172 187q76 0 133 -45l-39 -67q-38 31 -83 31z" />
    <glyph glyph-name="circumflex" unicode="&#x2c6;" horiz-adv-x="324" 
d="M20 573l87 127h111l86 -127h-87l-55 62l-55 -62h-87z" />
    <glyph glyph-name="caron" unicode="&#x2c7;" horiz-adv-x="324" 
d="M20 700h87l55 -62l55 62h87l-86 -127h-111z" />
    <glyph glyph-name="uni02C9" unicode="&#x2c9;" horiz-adv-x="242" 
d="M0 603v70h242v-70h-242z" />
    <glyph glyph-name="breve" unicode="&#x2d8;" horiz-adv-x="346" 
d="M173 576q-62 0 -92.5 32.5t-30.5 91.5h77q0 -56 46 -56q45 0 45 56h78q0 -59 -31 -91.5t-92 -32.5z" />
    <glyph glyph-name="dotaccent" unicode="&#x2d9;" horiz-adv-x="236" 
d="M118 587q-26 0 -43 16t-17 41t17 41.5t43 16.5q27 0 44 -16t17 -42q0 -25 -17 -41t-44 -16z" />
    <glyph glyph-name="ring" unicode="&#x2da;" horiz-adv-x="296" 
d="M148 558q-40 0 -65 23.5t-25 62.5q0 40 25 63t65 23q39 0 64.5 -23t25.5 -63q0 -39 -25.5 -62.5t-64.5 -23.5zM148 612q13 0 22 8.5t9 23.5q0 31 -31 31t-31 -31q0 -32 31 -32z" />
    <glyph glyph-name="ogonek" unicode="&#x2db;" horiz-adv-x="266" 
d="M145 -175q-42 0 -66 22.5t-24 59.5q0 59 58 93h78q-64 -28 -64 -78q0 -31 30 -31q19 0 37 14l24 -57q-32 -23 -73 -23z" />
    <glyph glyph-name="tilde" unicode="&#x2dc;" horiz-adv-x="455" 
d="M117 580l-56 50q46 74 108 74q29 0 68.5 -20t54.5 -20q28 0 54 44l56 -50q-47 -74 -107 -74q-27 0 -67 20t-56 20q-29 0 -55 -44z" />
    <glyph glyph-name="hungarumlaut" unicode="&#x2dd;" horiz-adv-x="408" 
d="M26 573l64 127h116l-94 -127h-86zM210 573l64 127h116l-94 -127h-86z" />
    <glyph glyph-name="gravecomb" unicode="&#x300;" 
d="M-86 573l-94 127h116l64 -127h-86z" />
    <glyph glyph-name="acutecomb" unicode="&#x301;" 
d="M-180 573l64 127h116l-94 -127h-86z" />
    <glyph glyph-name="uni0302" unicode="&#x302;" 
d="M-284 573l87 127h111l86 -127h-87l-55 62l-55 -62h-87z" />
    <glyph glyph-name="tildecomb" unicode="&#x303;" 
d="M-285 580l-56 50q46 74 108 74q29 0 68.5 -20t54.5 -20q28 0 54 44l56 -50q-47 -74 -107 -74q-27 0 -67 20t-56 20q-29 0 -55 -44z" />
    <glyph glyph-name="uni0308" unicode="&#x308;" 
d="M-232 590q-25 0 -41 15t-16 39q0 23 16 38.5t41 15.5t41 -15.5t16 -38.5q0 -24 -16 -39t-41 -15zM-57 590q-25 0 -41 15t-16 39q0 23 16 38.5t41 15.5t41 -15.5t16 -38.5q0 -24 -16 -39t-41 -15z" />
    <glyph glyph-name="uni030A" unicode="&#x30a;" 
d="M-90 558q-40 0 -65 23.5t-25 62.5q0 40 25 63t65 23q39 0 64.5 -23t25.5 -63q0 -39 -25.5 -62.5t-64.5 -23.5zM-90 612q13 0 22 8.5t9 23.5q0 31 -31 31t-31 -31q0 -32 31 -32z" />
    <glyph glyph-name="uni030C" unicode="&#x30c;" 
d="M-284 700h87l55 -62l55 62h87l-86 -127h-111z" />
    <glyph glyph-name="uni0327" unicode="&#x327;" 
d="M-127 -130l47 130h80l-31 -130h-96z" />
    <glyph glyph-name="uni0337" unicode="&#x337;" 
d="M-293 218v92l293 170v-92z" />
    <glyph glyph-name="uni0338" unicode="&#x338;" 
d="M-277 -43l-61 27l281 574l60 -26z" />
    <glyph glyph-name="pi" unicode="&#x3c0;" horiz-adv-x="716" 
d="M668 433h-104l-1 -232q0 -64 23 -91t79 -30l-15 -82q-96 3 -137 48t-41 151v236h-232v-433h-92v433h-104v82h624v-82z" />
    <glyph glyph-name="endash" unicode="&#x2013;" horiz-adv-x="588" 
d="M55 266v82h478v-82h-478z" />
    <glyph glyph-name="emdash" unicode="&#x2014;" horiz-adv-x="822" 
d="M55 266v82h712v-82h-712z" />
    <glyph glyph-name="quoteleft" unicode="&#x2018;" horiz-adv-x="232" 
d="M131 707l31 -33q-64 -57 -64 -108q12 19 38 19q19 0 33.5 -14t14.5 -37q0 -26 -18 -43.5t-48 -17.5q-34 0 -52.5 23.5t-18.5 59.5q0 82 84 151z" />
    <glyph glyph-name="quoteright" unicode="&#x2019;" horiz-adv-x="232" 
d="M101 473l-32 33q65 56 65 108q-12 -19 -38 -19q-20 0 -34 14t-14 37q0 26 18 43.5t48 17.5q33 0 52 -24t19 -59q0 -82 -84 -151z" />
    <glyph glyph-name="quotesinglbase" unicode="&#x201a;" horiz-adv-x="232" 
d="M101 -129l-32 33q65 56 65 108q-12 -19 -38 -19q-20 0 -34 14t-14 36q0 27 18 44.5t48 17.5q33 0 52 -24t19 -59q0 -82 -84 -151z" />
    <glyph glyph-name="quotedblleft" unicode="&#x201c;" horiz-adv-x="418" 
d="M131 706l31 -33q-64 -57 -64 -108q12 19 38 19q19 0 33.5 -14t14.5 -36q0 -27 -18 -44.5t-48 -17.5q-34 0 -52.5 23.5t-18.5 59.5q0 82 84 151zM318 706l31 -33q-64 -57 -64 -108q12 19 38 19q19 0 33 -14t14 -36q0 -27 -17.5 -44.5t-47.5 -17.5q-34 0 -52.5 23.5
t-18.5 59.5q0 83 84 151z" />
    <glyph glyph-name="quotedblright" unicode="&#x201d;" horiz-adv-x="418" 
d="M101 473l-32 33q65 56 65 108q-12 -19 -38 -19q-20 0 -34 14t-14 37q0 26 18 43.5t48 17.5q33 0 52 -24t19 -59q0 -82 -84 -151zM287 473l-31 33q65 58 65 108q-14 -19 -39 -19q-19 0 -33 14t-14 37q0 26 17.5 43.5t47.5 17.5q34 0 52.5 -23.5t18.5 -59.5q0 -83 -84 -151
z" />
    <glyph glyph-name="quotedblbase" unicode="&#x201e;" horiz-adv-x="418" 
d="M101 -129l-32 33q65 56 65 108q-12 -19 -38 -19q-20 0 -34 14t-14 36q0 27 18 44.5t48 17.5q33 0 52 -24t19 -59q0 -82 -84 -151zM287 -129l-31 33q31 28 48 52.5t17 55.5q-14 -19 -39 -19q-19 0 -33 14t-14 36q0 27 17.5 44.5t47.5 17.5q34 0 52.5 -23.5t18.5 -59.5
q0 -83 -84 -151z" />
    <glyph glyph-name="dagger" unicode="&#x2020;" horiz-adv-x="501" 
d="M460 503v-85h-163l-1 -533h-91l-1 533h-164v85h164v197h93v-197h163z" />
    <glyph glyph-name="daggerdbl" unicode="&#x2021;" horiz-adv-x="501" 
d="M460 418h-163l-1 -251h164v-85h-164v-197h-91v197h-165v85h165l-1 251h-164v85h164v197h93v-197h163v-85z" />
    <glyph glyph-name="bullet" unicode="&#x2022;" horiz-adv-x="332" 
d="M166 221q-40 0 -66 24t-26 62t26 62.5t66 24.5t66 -24.5t26 -62.5t-26 -62t-66 -24z" />
    <glyph glyph-name="ellipsis" unicode="&#x2026;" horiz-adv-x="657" 
d="M115 -7q-27 0 -44 16t-17 41q0 26 17 42t44 16q26 0 43 -16.5t17 -41.5t-17 -41t-43 -16zM329 -7q-27 0 -44 16t-17 41q0 26 17 42t44 16q26 0 43 -16.5t17 -41.5t-17 -41t-43 -16zM542 -7q-26 0 -43 16t-17 41t17 41.5t43 16.5q27 0 44 -16t17 -42q0 -25 -17 -41
t-44 -16z" />
    <glyph glyph-name="perthousand" unicode="&#x2030;" horiz-adv-x="1106" 
d="M178 392q-68 -1 -111.5 43t-43.5 114t43.5 114t111.5 44q67 0 110.5 -44t43.5 -114q0 -69 -43.5 -113t-110.5 -44zM133 11l-49 41l521 637l49 -40zM178 455q39 -1 62.5 24t23.5 70t-23.5 70t-62.5 25q-40 0 -64 -25t-24 -70t24 -69.5t64 -24.5zM563 -7q-67 -1 -111 43.5
t-44 113.5q0 70 44 114t111 44t111 -44t44 -114q0 -69 -44 -113t-111 -44zM928 -7q-67 -1 -110.5 43t-43.5 114q0 71 43.5 114.5t110.5 43.5q68 0 111.5 -44t43.5 -114q0 -69 -44 -113t-111 -44zM563 56q40 0 63.5 24.5t23.5 69.5t-23.5 70t-63.5 25t-63.5 -25t-23.5 -70
t23.5 -69t63.5 -25zM929 56q39 0 62.5 24.5t23.5 69.5t-23.5 70t-62.5 25q-40 0 -63.5 -25t-23.5 -70t23.5 -69t63.5 -25z" />
    <glyph glyph-name="guilsinglleft" unicode="&#x2039;" horiz-adv-x="345" 
d="M197 19l-149 238l149 238h99l-149 -238l149 -238h-99z" />
    <glyph glyph-name="guilsinglright" unicode="&#x203a;" horiz-adv-x="345" 
d="M147 19h-99l149 238l-149 238h99l149 -238z" />
    <glyph glyph-name="fraction" unicode="&#x2044;" horiz-adv-x="267" 
d="M-103 11l-49 41l522 637l48 -40z" />
    <glyph glyph-name="uni2074" unicode="&#x2074;" horiz-adv-x="347" 
d="M317 554v-55h-54v-84h-62v84h-176v55l175 261h63v-261h54zM91 554h110v169z" />
    <glyph glyph-name="Euro" unicode="&#x20ac;" horiz-adv-x="732" 
d="M615 223l91 -20q-68 -213 -281 -213q-115 0 -194 64t-106 183h-93v81h83q-1 10 -1 32q0 19 1 28h-83v82h93q26 120 106.5 185t193.5 65q111 0 174.5 -54t81.5 -173l-89 -19q-26 157 -167 157q-71 0 -125 -40.5t-76 -120.5h258v-82h-271q-1 -9 -1 -28q0 -22 1 -32h271v-81
h-258q23 -78 76 -118t125 -40q75 0 121.5 34.5t68.5 109.5z" />
    <glyph glyph-name="uni2113" unicode="&#x2113;" horiz-adv-x="597" 
d="M331 76q40 0 68 29t38 83l83 -18q-18 -88 -68 -133t-120 -45q-81 0 -130.5 47.5t-65.5 133.5q-46 -14 -94 -24l-18 78q51 10 105 26v4q0 190 85.5 321.5t201.5 131.5q64 0 97 -36.5t33 -98.5q0 -249 -324 -373q18 -126 109 -126zM407 628q-64 0 -126 -95.5t-64 -247.5
q115 49 179 120.5t64 156.5q0 66 -53 66z" />
    <glyph glyph-name="trademark" unicode="&#x2122;" horiz-adv-x="805" 
d="M302 700v-61h-113v-336h-64v336h-113v61h290zM667 700h81v-397h-60v295l-107 -237h-55l-108 237v-295h-60v397h81l114 -262z" />
    <glyph glyph-name="uni2126" unicode="&#x2126;" horiz-adv-x="743" 
d="M30 0v82h177q-73 52 -116.5 133.5t-43.5 174.5q0 146 90.5 233t232.5 87t231.5 -87t89.5 -233q0 -94 -43 -175t-116 -133h180v-82h-291v82q74 37 123 121t49 183q0 110 -62.5 173.5t-160.5 63.5q-99 0 -161.5 -63.5t-62.5 -173.5q0 -100 49.5 -183.5t124.5 -120.5v-82
h-290z" />
    <glyph glyph-name="estimated" unicode="&#x212e;" horiz-adv-x="790" 
d="M214 332v-234q78 -63 193 -63q104 0 173 46t96 119l46 -10q-37 -95 -118.5 -147.5t-196.5 -52.5q-151 0 -250 95t-99 265t99 265t250 95q87 0 159 -31t119 -99t47 -163q0 -31 -7 -85h-511zM594 607q-75 58 -187 58q-115 0 -193 -63v-226h380v231z" />
    <glyph glyph-name="uni2153" unicode="&#x2153;" horiz-adv-x="816" 
d="M84 300v324l-63 -16v51l80 41h47v-400h-64zM107 11l-49 41l522 637l48 -40zM645 -5q-99 0 -141 85l50 32q31 -57 91 -57q32 0 50.5 16.5t18.5 44.5q0 62 -81 62h-30v56h26q71 0 71 60q0 25 -15.5 39t-42.5 14q-50 0 -76 -54l-48 32q35 81 126 81q55 0 87 -28t32 -75
q0 -62 -54 -91q71 -23 71 -96q0 -53 -37.5 -87t-97.5 -34z" />
    <glyph glyph-name="partialdiff" unicode="&#x2202;" horiz-adv-x="581" 
d="M270 -10q-103 0 -165.5 64t-62.5 161q0 113 66 176t161 63q62 0 107.5 -27.5t65.5 -76.5l1 32q-1 123 -42.5 181.5t-112.5 58.5q-78 0 -128 -76l-67 53q78 111 198 111q111 0 177 -82.5t66 -230.5q0 -212 -73 -309.5t-191 -97.5zM272 79q61 0 102.5 42.5t41.5 108.5
q0 71 -38.5 104.5t-98.5 33.5q-62 0 -102 -40.5t-40 -109.5q0 -65 36.5 -102t98.5 -37z" />
    <glyph glyph-name="uni2206" unicode="&#x2206;" horiz-adv-x="625" 
d="M38 0v81l222 619h105l222 -619v-81h-549zM135 87h355l-177 506z" />
    <glyph glyph-name="product" unicode="&#x220f;" horiz-adv-x="648" 
d="M81 -115v815h487v-815h-94v727h-299v-727h-94z" />
    <glyph glyph-name="summation" unicode="&#x2211;" horiz-adv-x="581" 
d="M65 -115v82l218 326l-218 325v82h454v-86h-343l213 -321l-213 -322h343v-86h-454z" />
    <glyph glyph-name="minus" unicode="&#x2212;" horiz-adv-x="521" 
d="M55 293v82h411v-82h-411z" />
    <glyph glyph-name="uni2215" unicode="&#x2215;" horiz-adv-x="463" 
d="M18 -50l337 800h89l-337 -800h-89z" />
    <glyph glyph-name="uni2219" unicode="&#x2219;" horiz-adv-x="332" 
d="M166 276q-40 0 -66 24t-26 62t26 62.5t66 24.5t66 -24.5t26 -62.5t-26 -62t-66 -24z" />
    <glyph glyph-name="radical" unicode="&#x221a;" horiz-adv-x="604" 
d="M498 700h99l-256 -700h-102l-118 322h-103v81h170l102 -297z" />
    <glyph glyph-name="infinity" unicode="&#x221e;" horiz-adv-x="755" 
d="M538 492q74 0 124.5 -47.5t50.5 -132.5t-52.5 -132.5t-126.5 -47.5q-103 0 -162 83q-57 -83 -154 -83q-75 0 -125 47.5t-50 132.5t52.5 132.5t126.5 47.5q102 0 162 -84q56 84 154 84zM220 207q50 0 78.5 34t47.5 95q-44 81 -120 81q-43 0 -72.5 -28t-29.5 -77t27.5 -77
t68.5 -28zM530 207q43 0 72.5 28t29.5 77t-28 77t-68 28q-51 0 -79.5 -34t-47.5 -95q45 -81 121 -81z" />
    <glyph glyph-name="integral" unicode="&#x222b;" horiz-adv-x="527" 
d="M92 -175q-76 0 -133 45l39 67q38 -31 83 -31q39 0 61 23.5t30 88.5l55 509q11 101 55.5 144t116.5 43q76 0 133 -45l-38 -67q-38 31 -83 31q-39 0 -61 -23.5t-30 -88.5l-56 -509q-20 -187 -172 -187z" />
    <glyph glyph-name="approxequal" unicode="&#x2248;" horiz-adv-x="457" 
d="M306 379q-30 0 -81 24t-69 24q-43 0 -73 -51l-59 52q55 83 127 83q32 0 82 -24t68 -24q43 0 73 52l59 -53q-55 -83 -127 -83zM306 154q-30 0 -81 24t-69 24q-43 0 -73 -52l-59 53q55 83 127 83q32 0 82 -24t68 -24q43 0 73 51l59 -52q-55 -83 -127 -83z" />
    <glyph glyph-name="notequal" unicode="&#x2260;" horiz-adv-x="521" 
d="M466 403h-139l-51 -139h190v-82h-219l-49 -133h-84l49 133h-108v82h137l51 139h-188v83h218l49 133h84l-49 -133h109v-83z" />
    <glyph glyph-name="lessequal" unicode="&#x2264;" horiz-adv-x="525" 
d="M455 177l-391 191v83l391 191v-98l-291 -134l291 -135v-98zM55 0v82h411v-82h-411z" />
    <glyph glyph-name="greaterequal" unicode="&#x2265;" horiz-adv-x="525" 
d="M70 177v98l291 135l-291 134v98l391 -191v-83zM470 0h-411v82h411v-82z" />
    <glyph glyph-name="lozenge" unicode="&#x25ca;" horiz-adv-x="541" 
d="M322 700l200 -350l-200 -350h-102l-201 350l201 350h102zM271 85l154 265l-154 265l-155 -265z" />
    <glyph glyph-name="f_j" horiz-adv-x="612" 
d="M279 633q-86 0 -80 -118h137v-82h-137v-433h-92v433h-90v82h90q-4 199 159 199q63 0 109 -27l-28 -74q-34 20 -68 20zM495 587q-26 0 -43 16t-17 41t17 41.5t43 16.5q27 0 44 -16t17 -42q0 -25 -17 -41t-44 -16zM449 93v422h93v-407q0 -105 -28.5 -161.5t-103.5 -121.5
l-47 63q43 42 64.5 88t21.5 117z" />
    <glyph glyph-name="two.dnom" horiz-adv-x="317" 
d="M34 0v54l81 94q5 6 24.5 27.5t27.5 31.5t20.5 27.5t18 32t5.5 28.5q0 50 -53 50q-60 0 -73 -80l-51 33q10 49 43.5 78.5t84.5 29.5q53 0 83.5 -29.5t30.5 -76.5q0 -37 -19 -71t-59 -79l-78 -89h166v-61h-252z" />
    <glyph glyph-name="three.dnom" horiz-adv-x="339" 
d="M168 -5q-99 0 -141 85l50 32q31 -57 91 -57q32 0 50.5 16.5t18.5 44.5q0 62 -81 62h-30v56h26q71 0 71 60q0 25 -15.5 39t-42.5 14q-50 0 -76 -54l-48 32q35 81 126 81q55 0 87 -28t32 -75q0 -62 -54 -91q71 -23 71 -96q0 -53 -37.5 -87t-97.5 -34z" />
    <glyph glyph-name="four.dnom" horiz-adv-x="347" 
d="M317 139v-55h-54v-84h-62v84h-176v55l175 261h63v-261h54zM91 139h110v169z" />
    <glyph glyph-name="one.numr" horiz-adv-x="210" 
d="M84 300v324l-63 -16v51l80 41h47v-400h-64z" />
    <glyph glyph-name="two.numr" horiz-adv-x="317" 
d="M34 299v54l81 94q5 6 24.5 27.5t27.5 31.5t20.5 27.5t18 32t5.5 28.5q0 50 -53 50q-60 0 -73 -80l-51 33q10 49 43.5 78.5t84.5 29.5q53 0 83.5 -29.5t30.5 -76.5q0 -37 -19 -71t-59 -79l-78 -89h166v-61h-252z" />
    <glyph glyph-name="three.numr" horiz-adv-x="339" 
d="M168 294q-99 0 -141 85l50 32q31 -57 91 -57q32 0 50.5 16.5t18.5 44.5q0 62 -81 62h-30v56h26q71 0 71 60q0 25 -15.5 39t-42.5 14q-50 0 -76 -54l-48 32q35 81 126 81q55 0 87 -28t32 -75q0 -62 -54 -91q71 -23 71 -96q0 -53 -37.5 -87t-97.5 -34z" />
    <glyph glyph-name="bullet.case" horiz-adv-x="332" 
d="M166 276q-40 0 -66 24t-26 62t26 62.5t66 24.5t66 -24.5t26 -62.5t-26 -62t-66 -24z" />
    <glyph glyph-name="parenleft.case" horiz-adv-x="396" 
d="M303 -115q-218 185 -218 465t218 465l54 -52q-88 -92 -133 -187t-45 -226t45 -226t133 -187z" />
    <glyph glyph-name="parenright.case" horiz-adv-x="397" 
d="M94 -115l-55 52q88 92 133.5 187t45.5 226t-45.5 226t-133.5 187l55 52q218 -186 218 -465t-218 -465z" />
    <glyph glyph-name="braceleft.case" horiz-adv-x="438" 
d="M326 -85q-99 0 -142 42.5t-43 139.5v128q0 45 -20.5 63t-74.5 18v83q54 0 74.5 18.5t20.5 63.5v127q0 97 42.5 139.5t141.5 42.5h85v-82h-70q-64 0 -86.5 -23t-22.5 -91v-129q0 -90 -74 -107q74 -17 74 -107v-130q0 -68 22.5 -91t86.5 -23h70v-82h-84z" />
    <glyph glyph-name="braceright.case" horiz-adv-x="438" 
d="M112 -85h-84v82h70q64 0 86.5 23t22.5 91v130q0 90 74 107q-74 17 -74 107v129q0 68 -22.5 91t-86.5 23h-70v82h85q99 0 141.5 -42.5t42.5 -139.5v-127q0 -45 20.5 -63.5t74.5 -18.5v-83q-54 0 -74.5 -18t-20.5 -63v-128q0 -97 -43 -139.5t-142 -42.5z" />
    <glyph glyph-name="bracketleft.case" horiz-adv-x="395" 
d="M81 -85v865h285v-82h-195v-701h195v-82h-285z" />
    <glyph glyph-name="bracketright.case" horiz-adv-x="395" 
d="M314 -85h-284v82h194v701h-194v82h284v-865z" />
    <glyph glyph-name="hyphen.case" horiz-adv-x="452" 
d="M55 321v82h342v-82h-342z" />
    <glyph glyph-name="uni00AD.case" horiz-adv-x="452" 
d="M55 321v82h342v-82h-342z" />
    <glyph glyph-name="endash.case" horiz-adv-x="588" 
d="M55 321v82h478v-82h-478z" />
    <glyph glyph-name="emdash.case" horiz-adv-x="822" 
d="M55 321v82h712v-82h-712z" />
    <glyph glyph-name="at.case" horiz-adv-x="881" 
d="M423 -44q-74 0 -139 23t-117 68.5t-82.5 121.5t-30.5 173q0 187 110 287.5t281 100.5q174 0 278.5 -95.5t104.5 -273.5q0 -117 -43.5 -177.5t-112.5 -60.5q-90 0 -116 87q-46 -87 -144 -87q-71 0 -119.5 57t-48.5 156t48.5 155.5t125.5 56.5q88 0 126 -74l10 66h70v-262
q0 -47 12.5 -66t40.5 -19q74 0 74 168q0 142 -78.5 219t-227.5 77q-147 0 -230.5 -83t-83.5 -232q0 -147 80.5 -230.5t211.5 -83.5q99 0 166 40l32 -64q-87 -48 -198 -48zM434 200q57 0 84 38t27 98q0 136 -110 136q-51 0 -78.5 -36.5t-27.5 -99.5t27 -99.5t78 -36.5z" />
    <glyph glyph-name="uni0308.case" 
d="M-232 775q-25 0 -41 15t-16 39q0 23 16 38.5t41 15.5t41 -15.5t16 -38.5q0 -24 -16 -39t-41 -15zM-57 775q-25 0 -41 15t-16 39q0 23 16 38.5t41 15.5t41 -15.5t16 -38.5q0 -24 -16 -39t-41 -15z" />
    <glyph glyph-name="gravecomb.case" 
d="M-86 758l-94 127h116l64 -127h-86z" />
    <glyph glyph-name="acutecomb.case" 
d="M-180 758l64 127h116l-94 -127h-86z" />
    <glyph glyph-name="uni0302.case" 
d="M-284 758l87 127h111l86 -127h-87l-55 62l-55 -62h-87z" />
    <glyph glyph-name="uni030C.case" 
d="M-284 885h87l55 -62l55 62h87l-86 -127h-111z" />
    <glyph glyph-name="uni030A.case" 
d="M-90 743q-40 0 -65 23.5t-25 62.5q0 40 25 63t65 23q39 0 64.5 -23t25.5 -63q0 -39 -25.5 -62.5t-64.5 -23.5zM-90 797q13 0 22 8.5t9 23.5q0 31 -31 31t-31 -31q0 -32 31 -32z" />
    <glyph glyph-name="tildecomb.case" 
d="M-285 765l-56 50q46 74 108 74q29 0 68.5 -20t54.5 -20q28 0 54 44l56 -50q-47 -74 -107 -74q-27 0 -67 20t-56 20q-29 0 -55 -44z" />
    <glyph glyph-name="uni0337.case" 
d="M-349 181v91l349 202v-90z" />
    <glyph glyph-name="uni0338.case" 
d="M-434 -30l-72 39l434 721l72 -39z" />
    </font>
</defs>
</svg>
